<?xml version="1.0" standalone="no"?>
<!DOCTYPE svg PUBLIC "-//W3C//DTD SVG 1.1//EN" "http://www.w3.org/Graphics/SVG/1.1/DTD/svg11.dtd">
<svg xmlns="http://www.w3.org/2000/svg">
<defs >
<font id="Vollkorn" horiz-adv-x="568" ><font-face
    font-family="Vollkorn SemiBold"
    units-per-em="1000"
    panose-1="0 0 7 0 0 0 0 0 0 0"
    ascent="952"
    descent="-441"
    alphabetic="0" />
<glyph unicode=" " glyph-name="space" horiz-adv-x="186" />
<glyph unicode="!" glyph-name="exclam" horiz-adv-x="418" d="M331 575T301 456T246 231Q240 230 229 230Q204 230 186 239Q212 467 220 679Q251 685 284 694T339 715Q360 708 360 685Q360 672 354 651Q331 575 301 456ZM151 -8T133 8T115 52Q115 65 117 72Q122
98 141 113T189 129Q215 129 233 112T252 66Q252 62 250 50Q245 23 227 8T181 -8Q151 -8 133 8Z" />
<glyph unicode="&quot;" glyph-name="quotedbl" horiz-adv-x="352" d="M237 707T237 684Q237 675 232 660Q205 582 175 459Q143 459 125 470Q144 589 147 691Q191 698 218 715Q237 707 237 684ZM382 707T382 684Q382 675 377 660Q350 582 320 459Q288 459 270
470Q289 589 292 691Q336 698 363 715Q382 707 382 684Z" />
<glyph unicode="#" glyph-name="numbersign" horiz-adv-x="601" d="M475 440L440 266H550Q550 247 548 234T538 206H441H428L384 -8Q347 -4 329 14L368 206Q257 206 214 205L171 -8Q132 -5 117 18L155 205L44 203Q44 240 57 266H168L203 439Q128 439 95 438Q95
473 108 500H215L259 715Q298 712 313 692L274 500H429L473 715Q491 713 505 707T527 694L487 500H590Q590 481 588 467T578 440H506H475ZM417 440H262L227 266H381L417 440Z" />
<glyph unicode="$" glyph-name="dollar" horiz-adv-x="480" d="M391 595T340 620L296 398Q346 364 376 340T427 280T449 197Q449 181 446 161Q437 111 404 73T321 13T213 -9L198 -91Q158 -89 140 -72L153 -6Q104 0 69 17T-1 63Q26 141 31 206Q49 212 71 212Q90
212 103 208Q102 197 102 177Q102 126 116 97T164 56L210 294Q147 337 114 379T81 486Q81 510 85 531Q97 599 152 639T293 685L306 751Q342 751 364 733L353 683Q432 673 474 637Q463 565 463 501Q443 494 415 494Q400 494 392 495Q391 595 340 620ZM189 540T189
529Q189 502 203 480T245 434L283 630Q203 624 190 546Q189 540 189 529ZM329 186T312 210T262 258L238 130L223 48Q268 50 298 79T329 155Q329 186 312 210Z" />
<glyph unicode="%" glyph-name="percent" horiz-adv-x="758" d="M151 -3T140 10T127 38L644 685Q678 668 685 637Q527 446 418 311T166 -9Q151 -3 140 10ZM159 359T123 396T86 496Q86 515 91 542Q104 603 148 640T252 677Q312 677 346 642T380 545Q380 524 375
496Q362 435 320 397T222 359Q159 359 123 396ZM251 410T270 432T296 492Q301 520 301 539Q301 580 286 603T241 626Q216 626 197 604T171 544Q166 517 166 498Q166 457 182 434T227 410Q251 410 270 432ZM491 -9T455 28T418 128Q418 147 423 174Q436 235 480 272T584
309Q644 309 678 274T712 177Q712 156 707 128Q694 67 652 29T554 -9Q491 -9 455 28ZM583 42T602 64T628 124Q633 152 633 171Q633 212 618 235T573 258Q548 258 529 236T503 176Q498 149 498 130Q498 89 514 66T559 42Q583 42 602 64Z" />
<glyph unicode="&amp;" glyph-name="ampersand" horiz-adv-x="739" d="M685 87T694 60Q675 30 643 11T570 -9Q534 -9 508 0T450 41Q352 -9 247 -9Q131 -9 76 37T20 159Q20 183 24 203Q37 275 81 318T198 397Q161 475 161 539Q161 561 166 589Q175 643 225 680T370
717Q448 717 489 686T530 605Q530 594 527 580Q517 530 490 497T428 444T336 399Q360 359 414 280Q474 193 513 146Q558 194 570 256Q575 283 575 299Q575 340 554 357T492 377Q489 391 489 405Q489 411 491 425Q522 429 561 442T620 468Q677 448 677 370Q677 344
671 312Q660 254 629 202T549 108Q568 89 583 83T614 77Q642 77 665 100Q685 87 694 60ZM273 519T309 448Q363 477 394 511T425 598Q425 630 408 647T358 664Q319 664 296 638T273 563Q273 519 309 448ZM138 189T138 174Q138 118 174 83T273 48Q350 48 416 78Q370
131 308 219Q252 299 228 342Q157 291 141 205Q138 189 138 174Z" />
<glyph unicode="&apos;" glyph-name="quotesingle" horiz-adv-x="207" d="M237 707T237 684Q237 675 232 660Q205 582 175 459Q143 459 125 470Q144 589 147 691Q191 698 218 715Q237 707 237 684Z" />
<glyph unicode="(" glyph-name="parenleft" horiz-adv-x="312" d="M281 635T234 533T161 282Q140 159 140 50Q140 -129 196 -262Q181 -273 151 -271Q99 -184 71 -82T43 126Q43 196 55 263Q79 402 138 511T318 741Q332 742 344 738T365 726Q281 635 234 533Z" />
<glyph unicode=")" glyph-name="parenright" horiz-adv-x="306" d="M232 83T170 -33T-13 -271Q-43 -274 -60 -260Q30 -147 79 -34T155 228Q174 336 174 434Q174 597 117 727Q136 743 160 741Q270 543 270 356Q270 298 259 234Q232 83 170 -33Z" />
<glyph unicode="*" glyph-name="asterisk" horiz-adv-x="469" d="M342 679T299 679Q286 679 280 678Q280 593 274 534Q204 588 165 629Q129 604 121 554Q198 530 255 504Q185 456 132 429Q144 382 189 363Q231 423 279 475Q303 391 312 333Q336 334 357 344T394
370Q348 430 312 490Q401 485 460 476Q463 491 463 507Q463 541 450 566Q390 545 309 527Q333 596 367 661Q342 679 299 679Z" />
<glyph unicode="+" glyph-name="plus" horiz-adv-x="550" d="M523 259T508 236H305L299 205Q275 73 264 6Q257 4 244 4Q218 4 203 15L245 235Q170 235 42 233Q42 272 58 295H256L296 503Q308 507 325 507Q344 507 358 500Q343 431 317 295H523Q523 259 508 236Z" />
<glyph unicode="," glyph-name="comma" horiz-adv-x="228" d="M154 109T154 68Q154 52 149 24Q139 -31 102 -86T12 -182Q-3 -181 -14 -174T-30 -156Q8 -121 30 -87T53 -27Q53 9 5 19Q5 39 10 60T24 95Q50 96 78 105T126 126Q154 109 154 68Z" />
<glyph unicode="-" glyph-name="hyphen" horiz-adv-x="371" d="M51 272T65 298H335Q334 254 320 224Q160 224 45 221Q51 272 65 298Z" />
<glyph unicode="." glyph-name="period" horiz-adv-x="215" d="M42 -9T22 9T1 60Q1 99 24 123T86 148Q117 148 137 127T158 75Q158 69 156 57Q150 26 130 9T77 -9Q42 -9 22 9Z" />
<glyph unicode="/" glyph-name="slash" horiz-adv-x="292" d="M356 710T375 687Q177 320 18 -9Q-1 -5 -13 2T-33 24L323 717Q356 710 375 687Z" />
<glyph unicode="0" glyph-name="zero" horiz-adv-x="618" d="M177 -9T113 51T49 214Q49 241 56 281Q76 385 155 446T346 507Q455 507 516 449T577 292Q577 262 571 227Q558 157 519 104T420 21T289 -9Q177 -9 113 51ZM354 47T392 87T446 203Q454 240 454 282Q454
360 420 405T325 450Q270 450 231 410T178 298Q171 260 171 222Q171 141 206 94T303 47Q354 47 392 87Z" />
<glyph unicode="1" glyph-name="one" horiz-adv-x="397" d="M35 30T44 50Q72 53 85 61T106 86T121 141L163 360Q167 380 167 399Q167 426 154 435T106 450Q103 464 103 480Q103 487 105 503Q165 500 237 500Q304 500 373 503Q371 473 362 450Q335 446 321 438T299
411T284 354L243 142Q238 112 238 98Q238 73 251 64T299 50Q302 35 302 17Q302 4 301 -3Q234 0 167 0Q89 0 33 -3Q35 30 44 50Z" />
<glyph unicode="2" glyph-name="two" horiz-adv-x="496" d="M187 506T110 459Q107 393 88 328Q111 316 157 316Q170 388 195 420T259 452Q290 452 307 434T325 383Q325 368 323 359Q316 321 289 286T214 214Q147 164 108 133T12 54Q11 49 11 40Q11 16 22 -3Q90
0 208 0Q259 0 315 -2Q330 -3 351 -3Q375 -3 386 3T405 26Q404 80 419 159Q408 164 390 166T355 168Q347 131 336 119T305 106Q291 106 281 107Q253 109 230 109Q187 109 165 107Q223 153 273 190Q272 189 314 219Q385 270 413 302T449 377Q451 393 451 400Q451
450 409 478T289 506Q187 506 110 459Z" />
<glyph unicode="3" glyph-name="three" horiz-adv-x="491" d="M96 381T77 328Q91 321 110 318T147 316Q161 389 187 420T251 452Q281 452 299 434T317 382Q317 366 315 357Q296 247 141 202Q140 198 140 189Q140 163 152 151Q218 152 252 125T287 48Q287 39 283
15Q271 -44 226 -79T111 -114Q55 -114 26 -97Q17 -102 10 -115T1 -142Q38 -171 115 -171Q224 -171 303 -118T405 24Q412 51 412 78Q412 132 383 171T299 224Q366 257 397 291T437 364Q441 380 441 398Q441 448 399 477T276 506Q176 506 100 459Q96 381 77 328Z"
/>
<glyph unicode="4" glyph-name="four" horiz-adv-x="552" d="M465 50T455 0H376L348 -153Q294 -153 247 -171Q231 -162 231 -143Q231 -135 232 -131L256 -1L61 -4Q48 -5 26 -5Q8 21 10 62Q239 313 401 506Q442 506 468 495L395 103H446Q459 103 467 99T482 83Q465
50 455 0ZM276 100L295 205Q300 234 309 278T326 344Q285 289 226 222T112 100H276Z" />
<glyph unicode="5" glyph-name="five" horiz-adv-x="473" d="M61 210T79 196Q168 191 218 152T269 50Q269 37 266 22Q255 -39 207 -76T89 -114Q43 -114 5 -98Q-15 -117 -18 -144Q20 -171 94 -171Q165 -171 227 -146T332 -72T388 41Q393 66 393 86Q393 172 325
228T137 299L164 387Q229 391 389 391Q418 391 429 413Q434 494 450 547Q426 557 384 555Q380 530 366 515T319 500Q205 500 145 503L61 235Q61 210 79 196Z" />
<glyph unicode="6" glyph-name="six" horiz-adv-x="555" d="M273 547T202 362Q234 380 263 387T327 395Q406 395 451 352T496 235Q496 213 491 185Q474 96 410 44T252 -9Q158 -9 107 45T56 197Q56 239 65 285Q85 387 148 465T306 587T516 638Q522 629 522 614Q522
604 519 593Q273 547 202 362ZM250 330T229 325T187 309Q185 302 183 290Q174 239 174 197Q174 127 197 88T264 48Q301 48 330 79T370 166Q374 187 374 212Q374 267 349 298T278 330Q250 330 229 325Z" />
<glyph unicode="7" glyph-name="seven" horiz-adv-x="472" d="M470 485T470 457Q363 307 324 246T260 134Q236 86 226 33T210 -108Q186 -117 159 -134T113 -170Q98 -166 90 -152T82 -109Q82 -61 103 -7T184 141T363 392H241Q200 392 180 375T145 311Q101 309 78
323Q105 418 112 503Q169 500 295 500Q387 500 454 503Q470 485 470 457Z" />
<glyph unicode="8" glyph-name="eight" horiz-adv-x="532" d="M505 461T469 422T368 354Q469 274 469 180Q469 155 462 131Q443 61 385 26T235 -9Q143 -9 90 26T37 128Q37 145 42 170Q54 224 91 262T201 336Q165 366 144 399T123 472Q123 488 128 510Q144 570
199 603T336 637Q419 637 462 604T505 518Q505 461 469 422ZM395 500T395 513Q395 548 376 566T325 585Q296 585 276 570T247 524Q243 512 243 497Q243 464 264 439T322 388Q352 408 368 430T392 485Q395 500 395 513ZM344 140T344 158Q344 198 320 230T247 300Q207
277 187 249T158 179Q155 160 155 143Q155 97 179 72T246 46Q322 46 340 124Q344 140 344 158Z" />
<glyph unicode="9" glyph-name="nine" horiz-adv-x="552" d="M403 506T453 453T504 303Q504 264 495 217Q473 107 408 22T245 -113T27 -170Q20 -160 20 -141Q20 -131 21 -125Q153 -101 232 -39T348 118Q296 87 233 87Q152 87 109 132T65 254Q65 286 72 317Q91
405 153 455T311 506Q403 506 453 453ZM386 269T386 308Q386 376 362 412T296 449Q256 449 229 417T192 330Q187 298 187 275Q187 220 211 186T287 152Q329 152 366 172Q371 189 377 219Q386 269 386 308Z" />
<glyph unicode=":" glyph-name="colon" horiz-adv-x="217" d="M105 304T87 320T69 364Q69 377 71 384Q76 410 95 425T143 441Q169 441 187 424T206 378Q206 374 204 362Q199 335 181 320T135 304Q105 304 87 320ZM48 17T30 33T12 77Q12 90 14 97Q19 123 38 138T86
154Q112 154 130 137T149 91Q149 87 147 75Q142 48 124 33T78 17Q48 17 30 33Z" />
<glyph unicode=";" glyph-name="semicolon" horiz-adv-x="233" d="M115 304T97 320T79 364Q79 377 81 384Q86 410 105 425T153 441Q179 441 197 424T216 378Q216 374 214 362Q209 335 191 320T145 304Q115 304 97 320ZM156 109T156 68Q156 52 151 24Q141 -31 104
-86T14 -182Q-1 -181 -12 -174T-28 -156Q10 -121 32 -87T55 -27Q55 9 7 19Q7 39 12 60T26 95Q52 96 80 105T128 126Q156 109 156 68Z" />
<glyph unicode="&lt;" glyph-name="less" horiz-adv-x="550" d="M234 134T63 228Q62 262 83 293L472 504Q487 499 497 488T515 456L134 260L442 73Q443 57 437 39T420 11Q234 134 63 228Z" />
<glyph unicode="=" glyph-name="equal" horiz-adv-x="550" d="M75 326T78 343T87 370H517Q517 333 506 311Q427 312 303 312Q165 312 75 310Q75 326 78 343ZM41 155T44 172T53 200H485Q485 163 474 140Q395 141 270 141Q131 141 41 139Q41 155 44 172Z" />
<glyph unicode="&gt;" glyph-name="greater" horiz-adv-x="550" d="M496 250T474 222Q370 173 286 128T70 10Q58 25 58 51Q58 61 62 79L425 260L112 470Q137 498 170 508L494 282Q496 250 474 222Z" />
<glyph unicode="?" glyph-name="question" horiz-adv-x="528" d="M228 689T269 702T355 715Q428 715 470 685T513 599Q513 584 510 569Q502 527 478 498T409 429Q363 390 337 358T302 278Q298 263 298 234Q298 219 299 212Q281 201 250 201Q238 211 231 234T223
286Q223 306 227 325Q236 372 258 403T319 472Q352 505 367 525T388 575Q390 584 390 602Q390 631 377 647T337 664Q306 664 283 634T238 533Q217 533 204 536T179 547Q191 587 196 612T203 671Q228 689 269 702ZM206 -8T188 8T170 52Q170 65 172 72Q177 98 196
113T244 129Q270 129 288 112T307 66Q307 62 305 50Q300 23 282 8T236 -8Q206 -8 188 8Z" />
<glyph unicode="@" glyph-name="at" horiz-adv-x="832" d="M468 -9T468 72Q468 104 483 151Q449 79 400 35T298 -9Q249 -9 225 25T200 122Q200 157 210 210Q225 284 263 342T359 434T488 467Q526 467 561 456Q600 458 632 467Q641 462 645 454T650 431Q650 412
641 373L593 157Q584 117 584 100Q584 85 589 80T604 75Q655 75 695 130T752 280Q759 318 759 357Q759 477 685 543T477 610Q387 610 310 569T181 452T109 271Q99 220 99 168Q99 70 136 -1T245 -110T414 -148Q492 -148 563 -122T694 -48Q718 -54 723 -79Q664 -137
583 -169T398 -202Q283 -202 200 -159T72 -36T27 156Q27 206 36 261Q56 380 120 470T282 610T494 660Q648 660 735 585T822 372Q822 335 814 289Q800 206 760 138T664 31T545 -9Q468 -9 468 72ZM384 86T412 115T468 201T514 336L529 400Q503 410 469 410Q415 410
384 368T337 252Q325 197 325 159Q325 123 335 105T364 86Q384 86 412 115Z" />
<glyph unicode="A" glyph-name="A" horiz-adv-x="693" d="M636 37T636 20Q636 5 635 -3Q600 0 511 0Q419 0 379 -3Q381 32 389 50Q422 55 435 64T448 95Q448 113 443 130L425 204Q270 204 170 199L138 146Q114 106 114 84Q114 69 124 61T156 50Q159 34 159 17Q159
4 158 -3Q129 0 57 0Q-3 0 -30 -3Q-28 30 -20 50Q4 56 26 78T82 158Q195 348 381 676Q400 682 430 682Q478 520 507 407T572 150Q582 109 590 89T607 62T633 50Q636 37 636 20ZM412 256Q399 311 369 421Q355 464 347 527Q314 460 290 416Q238 317 202 256H412Z"
/>
<glyph unicode="B" glyph-name="B" horiz-adv-x="632" d="M595 455T549 416T431 367Q513 363 555 326T598 221Q598 194 593 171Q577 91 504 46T307 0Q103 0 21 -3Q22 26 32 50Q62 54 76 62T98 90T114 158L181 539Q185 567 185 574Q185 604 171 613T124 626Q121
641 121 656Q121 671 122 679Q164 676 233 676L310 677Q368 679 398 679Q504 679 556 649T609 550Q609 529 605 510Q595 455 549 416ZM478 523T478 536Q478 581 449 603T367 626Q346 626 317 618L276 380H306Q377 380 420 413T475 506Q478 523 478 536ZM459 204T459
222Q459 277 420 300T293 324H266L235 143Q230 113 230 98Q230 68 245 60T300 51Q358 51 400 85T454 176Q459 204 459 222Z" />
<glyph unicode="C" glyph-name="C" horiz-adv-x="629" d="M642 564T631 476Q616 469 594 469Q580 469 566 472Q569 499 569 521Q569 585 541 609T456 634Q383 634 327 594T236 487T191 337Q187 299 187 281Q187 182 234 122T377 61Q472 61 562 114Q579 97 581
67Q473 -9 342 -9Q251 -9 186 27T87 127T53 275Q53 302 58 337Q74 452 134 530T277 647T451 685Q513 685 564 672T664 628Q642 564 631 476Z" />
<glyph unicode="D" glyph-name="D" horiz-adv-x="734" d="M726 679T726 420Q726 377 717 326Q686 154 568 77T287 0H284Q92 0 21 -3Q22 25 32 50Q62 54 77 63T100 92T115 158L181 539Q185 558 185 575Q185 602 172 612T124 627Q121 642 121 656Q121 665 123 679Q187
676 278 676L337 677Q379 679 400 679Q726 679 726 420ZM597 378T597 423Q597 533 538 580T383 627Q349 627 316 618L236 147Q231 115 231 100Q231 72 246 63T304 53Q535 53 587 327Q597 378 597 423Z" />
<glyph unicode="E" glyph-name="E" horiz-adv-x="598" d="M318 623L275 369H317Q375 369 400 385T432 447Q456 451 467 451Q474 451 492 449Q484 416 479 391T470 333Q461 278 458 219Q420 222 401 233Q404 279 385 297T311 316H266L238 154Q233 121 233 105Q233
74 249 64T307 53H325Q377 53 409 67T462 108T504 185Q541 179 563 158Q528 82 512 -3Q453 0 288 0Q98 0 24 -3Q24 24 34 50Q64 54 78 63T100 92T116 158L180 529Q185 559 185 572Q185 600 171 611T123 626Q121 648 121 658Q121 671 122 679Q195 676 325 676H327Q514
676 603 679Q594 612 594 555Q594 539 596 511Q571 502 532 502Q530 548 521 573T484 610T396 623H318Z" />
<glyph unicode="F" glyph-name="F" horiz-adv-x="558" d="M590 611T590 550Q590 523 591 511Q566 502 528 502Q526 549 517 573T479 610T391 623H317L269 340H318Q376 340 401 356T433 420Q453 423 471 423Q485 423 493 422Q485 389 480 364T471 306Q463 253 459
191Q421 194 402 205Q405 252 387 270T313 288H260L238 155Q232 122 232 103Q232 77 248 67T312 50Q315 37 315 20Q315 5 314 -3Q263 0 170 0Q70 0 22 -3Q23 26 33 50Q63 54 77 62T99 90T114 150L179 528Q184 558 184 573Q184 600 171 611T124 626Q121 641 121
659Q121 672 122 679Q181 676 324 676H326Q509 676 599 679Q590 611 590 550Z" />
<glyph unicode="G" glyph-name="G" horiz-adv-x="684" d="M534 685T589 671T691 628Q669 567 658 477Q641 470 621 470Q606 470 591 473Q593 488 593 515Q593 584 562 609T465 634Q350 634 279 552T191 337Q187 308 187 271Q187 172 229 111T358 49Q412 49 445
63Q464 71 472 87T489 152Q498 199 498 223Q498 252 484 262T429 276Q427 285 427 305Q427 321 428 329Q474 326 559 326Q634 326 687 329Q685 298 676 276Q652 273 642 265T625 234T607 154Q600 118 600 96Q600 76 605 63Q554 31 483 11T334 -9Q246 -9 183 26T86
124T53 272Q53 300 58 338Q75 454 135 532T280 647T460 685Q534 685 589 671Z" />
<glyph unicode="H" glyph-name="H" horiz-adv-x="771" d="M722 676T790 679Q788 645 779 626Q752 622 738 614T716 587T701 530L634 142Q629 112 629 99Q629 74 642 64T689 50Q692 35 692 17Q692 4 691 -3Q624 0 558 0Q477 0 422 -3Q424 28 433 50Q460 53 474
60T496 85T511 141L541 317Q365 317 265 312L236 142Q231 112 231 99Q231 73 244 64T290 50Q294 30 294 19Q294 11 292 -3Q226 0 160 0Q80 0 24 -3Q26 28 35 50Q62 53 76 60T98 86T112 141L180 536Q184 557 184 576Q184 602 171 612T123 626Q121 646 121 658Q121
672 122 679Q184 676 256 676Q323 676 392 679Q390 649 381 626Q354 622 340 614T318 587T303 530L276 371H551L579 536Q583 556 583 574Q583 601 570 611T522 626Q519 640 519 656Q519 663 521 679Q581 676 654 676Q722 676 790 679Z" />
<glyph unicode="I" glyph-name="I" horiz-adv-x="373" d="M184 557T184 576Q184 602 171 612T123 626Q121 646 121 658Q121 672 122 679Q184 676 256 676Q323 676 392 679Q390 649 381 626Q354 622 340 614T318 587T303 530L236 142Q231 112 231 98Q231 74 243
64T290 50Q294 30 294 19Q294 11 292 -3Q226 0 160 0Q80 0 24 -3Q26 28 35 50Q62 53 76 60T98 86T112 141L180 536Q184 557 184 576Z" />
<glyph unicode="J" glyph-name="J" horiz-adv-x="328" d="M142 676T240 676Q332 676 378 679Q376 648 369 626Q341 622 327 614T304 587T288 526L217 121Q199 20 174 -43T95 -155T-57 -248Q-73 -235 -77 -199Q-11 -158 26 -102T81 48L166 538Q171 565 171 578Q171
601 158 611T110 626Q106 638 106 654Q106 661 108 679Q142 676 240 676Z" />
<glyph unicode="K" glyph-name="K" horiz-adv-x="680" d="M662 621T633 605T548 539L370 376Q410 336 450 273T517 147Q531 113 544 100T575 87Q594 87 613 102Q633 88 643 61Q613 26 581 9T509 -9Q471 -9 445 13T400 87Q371 167 340 224T268 330L236 141Q231
109 231 95Q231 72 242 63T280 50Q284 30 284 19Q284 11 282 -3Q216 0 160 0Q80 0 24 -3Q26 28 35 50Q63 53 77 61T98 88T113 146L180 536Q184 557 184 576Q184 602 171 612T123 626Q121 646 121 658Q121 672 122 679Q184 676 256 676Q323 676 392 679Q390 649
381 626Q354 622 340 614T318 587T303 530L275 365L462 538Q517 589 517 608Q517 622 493 626Q489 650 489 664Q489 674 490 679Q530 676 604 676Q678 676 713 679Q713 644 705 626Q662 621 633 605Z" />
<glyph unicode="L" glyph-name="L" horiz-adv-x="571" d="M22 24T31 50Q61 53 75 61T97 90T113 158L180 539Q184 558 184 575Q184 601 171 611T124 626Q120 646 122 679Q163 676 256 676Q356 676 401 678Q401 647 391 626Q358 622 342 614T317 585T301 524L235
147Q230 115 230 101Q230 72 245 63T303 53H312Q361 53 392 66T446 108T491 187Q528 179 551 158Q517 92 500 -3Q453 0 289 0Q90 0 21 -3Q22 24 31 50Z" />
<glyph unicode="M" glyph-name="M" horiz-adv-x="909" d="M812 300T800 174Q797 143 797 121Q797 83 808 70T849 50Q851 41 851 22Q851 5 850 -3Q815 0 714 0Q619 0 578 -3Q578 22 588 50Q622 55 638 66T662 101T675 174Q690 325 699 498Q568 251 411 -4Q394 -9
361 -9Q302 239 219 509Q198 422 154 257L140 204Q122 138 122 107Q122 80 135 68T181 50Q183 41 183 21Q183 5 182 -3Q145 0 79 0Q12 0 -30 -3Q-30 26 -20 50Q6 57 21 70T49 112T79 197Q133 375 169 537Q176 572 176 583Q176 606 164 614T121 626Q118 641 118
654Q118 663 120 679Q151 676 213 676Q272 676 303 679Q384 418 445 159Q593 406 733 679Q769 676 819 676Q873 676 905 679Q905 652 896 626Q869 622 855 612T834 580T824 515Q812 300 800 174Z" />
<glyph unicode="N" glyph-name="N" horiz-adv-x="685" d="M704 676T735 679Q735 651 725 626Q701 619 688 606T665 564T646 480L562 -3Q544 -9 507 -9Q388 230 233 508L178 192Q170 142 170 118Q170 85 184 71T233 50Q236 37 236 20Q236 5 235 -3Q193 0 123 0Q62
0 19 -3Q21 26 28 50Q55 55 71 68T99 108T119 185L189 585Q188 589 184 595Q175 612 163 618T124 626Q121 640 121 656Q121 671 122 679Q161 676 201 676Q250 676 283 679Q403 472 540 199L589 488Q596 527 596 556Q596 590 582 604T532 626Q530 646 530 658Q530
672 531 679Q565 676 630 676Q704 676 735 679Z" />
<glyph unicode="O" glyph-name="O" horiz-adv-x="741" d="M258 -9T192 27T90 128T54 281Q54 323 63 368Q81 460 134 532T267 644T438 685Q525 685 590 652T692 555T729 400Q729 357 720 307Q703 217 651 145T520 32T345 -9Q258 -9 192 27ZM447 44T508 117T591
310Q599 358 599 396Q599 466 577 519T515 602T422 632Q341 632 280 561T196 375Q186 326 186 276Q186 172 231 108T360 44Q447 44 508 117Z" />
<glyph unicode="P" glyph-name="P" horiz-adv-x="593" d="M524 679T573 636T622 508Q622 481 616 448Q599 354 527 298T348 241Q308 241 287 252Q286 262 289 278T297 301Q314 296 339 296Q399 296 440 335T494 446Q500 476 500 502Q500 562 469 594T375 626Q345
626 318 618L238 155Q232 124 232 105Q232 78 248 68T312 50Q317 30 315 -3Q263 0 173 0Q71 0 24 -3Q26 29 34 50Q64 54 78 62T99 90T114 150L182 539Q186 567 186 574Q186 600 173 611T124 626Q121 641 121 659Q121 672 122 679Q166 676 272 676L334 677Q394 679
432 679Q524 679 573 636Z" />
<glyph unicode="Q" glyph-name="Q" horiz-adv-x="741" d="M729 -114T737 -126T749 -151Q729 -179 693 -199T616 -219Q568 -219 537 -198T479 -127Q450 -73 417 -44T331 -9H332Q248 -7 185 30T88 132T54 282Q54 323 63 368Q81 460 134 532T267 644T438 685Q525
685 590 652T692 555T729 400Q729 357 720 307Q700 200 631 120T461 8Q529 -12 611 -87Q638 -112 653 -119T685 -125Q703 -125 719 -109Q729 -114 737 -126ZM186 326T186 276Q186 172 231 108T360 44Q447 44 508 117T591 310Q599 358 599 396Q599 466 577 519T515
602T422 632Q341 632 280 561T196 375Q186 326 186 276Z" />
<glyph unicode="R" glyph-name="R" horiz-adv-x="672" d="M618 88T628 60Q570 -9 493 -9Q447 -9 424 21T378 123Q360 180 343 219T301 292Q273 292 262 293L235 137Q230 107 230 94Q230 71 240 63T279 50Q283 28 281 -3Q228 0 155 0Q65 0 24 -3Q26 31 35 50Q63
53 77 61T99 89T114 150L181 539Q185 567 185 574Q185 600 171 611T123 626Q121 635 121 655Q121 671 122 679Q171 676 264 676Q288 676 346 678Q400 680 422 680Q516 680 571 638T626 525Q626 504 622 487Q608 417 556 371T415 308Q440 280 459 247T501 156Q528
86 561 86Q571 86 579 89T597 101Q618 88 628 60ZM272 352Q285 350 307 350Q383 350 431 386T491 488Q495 507 495 526Q495 576 466 601T386 627Q347 627 317 617L272 352Z" />
<glyph unicode="S" glyph-name="S" horiz-adv-x="480" d="M137 -9T90 8T-1 63Q26 141 31 206Q49 212 71 212Q90 212 103 208Q102 197 102 176Q102 109 129 79T219 48Q266 48 297 78T329 156Q329 195 303 222T223 286Q176 318 149 342T101 402T81 487Q81 510 85
531Q98 603 158 644T311 685Q363 685 405 672T474 637Q463 565 463 501Q443 494 415 494Q400 494 392 495Q391 567 366 598T295 630Q204 630 190 546Q189 540 189 529Q189 501 204 478T241 438T303 393Q350 361 379 337T428 278T449 198Q449 181 446 161Q437 111
404 73T320 13T210 -9Q137 -9 90 8Z" />
<glyph unicode="T" glyph-name="T" horiz-adv-x="572" d="M616 594T619 510Q596 500 557 502Q555 550 547 576T517 615T456 627H422L337 140Q333 120 333 102Q333 77 348 67T408 50Q411 34 411 16Q411 3 410 -3Q367 0 263 0Q148 0 107 -3Q107 24 117 50Q154 55
172 63T199 91T215 150L298 627H259Q206 627 176 598T123 499Q81 499 63 515Q74 547 85 594T101 679Q163 676 362 676Q562 676 630 679Q616 594 619 510Z" />
<glyph unicode="U" glyph-name="U" horiz-adv-x="647" d="M202 -9T149 40T95 183Q95 221 102 257L151 539Q156 567 156 581Q156 604 146 613T108 626Q105 638 105 653Q105 661 107 679Q154 676 233 676Q316 676 368 679Q366 647 358 626Q326 623 311 615T288 588T272
527L226 262Q219 223 219 188Q219 52 339 52Q409 52 454 104T516 252L560 504Q567 540 567 565Q567 592 555 604T511 626Q508 641 508 656Q508 663 510 679Q552 676 611 676Q669 676 713 679Q711 649 702 626Q672 618 658 607T635 572T617 493L576 261Q551 120
488 56T311 -9Q202 -9 149 40Z" />
<glyph unicode="V" glyph-name="V" horiz-adv-x="664" d="M697 676T736 679Q736 654 726 626Q708 619 697 609T671 575T632 502Q494 231 356 0Q338 -9 302 -7Q282 79 237 258T169 521Q157 565 148 585T129 613T100 627Q98 635 98 654Q98 670 99 679Q146 676 226
676Q314 676 366 679Q364 646 355 626Q318 621 304 611T289 577Q289 556 300 515Q346 346 384 162Q446 267 486 342T570 512Q595 565 595 586Q595 603 583 611T542 626Q540 635 540 654Q540 670 541 679Q571 676 639 676Q697 676 736 679Z" />
<glyph unicode="W" glyph-name="W" horiz-adv-x="966" d="M1008 676T1038 679Q1038 650 1028 626Q1009 619 996 606T967 564T926 475Q804 197 705 -1Q692 -6 673 -6Q659 -6 645 -3Q605 260 544 490Q428 242 296 -1Q283 -6 264 -6Q248 -6 237 -3Q193 308 154 517Q145
566 140 586T127 614T102 627Q98 640 98 660Q98 673 99 679Q151 676 223 676Q312 676 356 679Q354 646 347 626Q305 618 290 605T275 562Q275 553 281 509L289 460Q317 294 332 182Q452 411 575 677Q590 684 613 684Q623 684 628 683Q697 425 736 188Q807 328 873
490Q898 552 898 580Q898 600 886 610T845 626Q842 640 842 654Q842 663 844 679Q872 676 941 676Q1008 676 1038 679Z" />
<glyph unicode="X" glyph-name="X" horiz-adv-x="636" d="M637 676T674 679Q674 654 664 626Q642 623 627 614T596 586T545 518Q469 413 407 338Q453 228 478 167Q498 119 512 97T539 65T576 49Q579 37 579 23Q579 17 577 -3Q521 0 445 0Q347 0 309 -3Q309 23
319 50Q347 54 359 62T371 87Q371 109 345 175Q327 220 303 275Q259 216 203 149Q168 107 168 82Q168 58 201 50Q203 28 203 19L202 -3Q161 0 93 0Q20 0 -18 -3Q-18 22 -8 50Q22 56 51 76T125 146Q213 245 278 333Q243 411 189 520Q166 567 154 586T131 614T102
627Q99 641 99 654Q99 663 101 679Q154 676 230 676Q315 676 369 679Q369 651 359 626Q328 621 315 613T302 587Q302 567 325 518L382 395Q429 453 471 512Q512 570 512 596Q512 609 504 615T477 626Q474 640 474 654Q474 663 476 679Q508 676 570 676Q637 676
674 679Z" />
<glyph unicode="Y" glyph-name="Y" horiz-adv-x="588" d="M626 676T661 679Q659 648 650 626Q629 618 612 602T563 535Q467 381 385 266L363 140Q358 113 358 101Q358 77 373 67T433 50Q437 35 437 15Q437 3 436 -3Q393 0 289 0Q174 0 133 -3Q133 28 143 50Q181
56 198 64T225 91T241 150L261 267Q223 394 170 532Q155 570 145 588T126 614T100 627Q98 635 98 654Q98 670 99 679Q140 676 223 676Q310 676 363 679Q363 651 353 626Q319 621 304 612T289 582Q289 565 297 546Q329 462 364 326Q428 421 489 530Q512 571 512
592Q512 605 501 613T467 626Q464 640 464 654Q464 661 466 679Q499 676 568 676Q626 676 661 679Z" />
<glyph unicode="Z" glyph-name="Z" horiz-adv-x="548" d="M587 660T585 627Q361 317 148 53H261Q320 53 353 63T408 101T454 186Q493 178 519 157Q504 122 491 79T472 -3Q381 0 215 0Q66 0 -8 -3Q-21 19 -20 49Q218 338 421 623H313Q270 623 243 613T195 574T151
489Q109 492 84 511Q99 544 112 590T131 679Q204 676 363 676Q497 676 571 679Q587 660 585 627Z" />
<glyph unicode="[" glyph-name="bracketleft" horiz-adv-x="296" d="M202 740T246 740Q292 740 346 742Q352 729 352 713Q352 699 350 692Q293 687 268 680T229 656T209 600L80 -133Q77 -150 77 -161Q77 -192 99 -203T180 -217Q184 -231 184 -239Q184 -254 178
-269Q136 -267 77 -267Q20 -267 -30 -269L148 742Q202 740 246 740Z" />
<glyph unicode="\" glyph-name="backslash" horiz-adv-x="296" d="M113 716T134 716Q147 716 154 714L251 0Q233 -9 207 -9Q196 -9 191 -8Q143 393 94 707Q113 716 134 716Z" />
<glyph unicode="]" glyph-name="bracketright" horiz-adv-x="295" d="M92 -267T44 -267Q-5 -267 -57 -269Q-58 -256 -55 -241T-45 -217Q5 -215 30 -209T68 -187T87 -140L217 600Q221 628 221 635Q221 656 211 667T179 683T112 692Q112 706 116 720T128 742Q184
740 228 740Q272 740 328 742L150 -269Q92 -267 44 -267Z" />
<glyph unicode="^" glyph-name="asciicircum" horiz-adv-x="488" d="M322 697T345 697Q352 697 364 695Q389 631 424 548T488 405Q481 400 469 397T445 393Q438 393 435 394L330 640Q219 521 102 383Q78 397 74 429L305 687Q322 697 345 697Z" />
<glyph unicode="_" glyph-name="underscore" horiz-adv-x="550" d="M-39 -109T-27 -86H455Q455 -100 452 -117T443 -145Q369 -144 312 -144T196 -144L39 -145L-39 -146Q-39 -109 -27 -86Z" />
<glyph unicode="`" glyph-name="grave" horiz-adv-x="300" d="M277 611T305 538Q291 534 280 534Q266 534 253 539Q213 619 148 702Q180 712 213 712Q239 712 261 706Q277 611 305 538Z" />
<glyph unicode="a" glyph-name="a" horiz-adv-x="515" d="M479 83T486 57Q425 -9 359 -9Q321 -9 304 14T286 72Q286 95 293 119Q298 139 322 194H318Q286 106 231 49T115 -9Q66 -9 42 25T17 122Q17 157 27 210Q42 284 80 342T176 434T305 467Q343 467 378 456Q419
458 450 467Q458 462 462 455T467 432Q467 414 458 373L410 157Q399 105 399 91Q399 80 402 76T415 72Q425 72 436 78T464 98Q479 83 486 57ZM201 86T229 115T285 201T331 336L346 400Q320 410 286 410Q232 410 201 368T154 252Q142 197 142 159Q142 123 152 105T181
86Q201 86 229 115Z" />
<glyph unicode="b" glyph-name="b" horiz-adv-x="492" d="M426 467T450 433T475 336Q475 301 465 248Q450 174 412 116T316 24T187 -9H185Q126 -9 84 6T13 52Q27 74 40 116T64 217L119 526Q126 564 126 586Q126 608 114 614T67 621Q65 648 75 669Q115 673 159
684T236 710Q249 703 255 693T261 666Q261 654 258 639Q228 470 214 406T173 265V264H174Q206 352 261 409T377 467Q426 467 450 433ZM350 262T350 299Q350 335 340 353T311 372Q291 372 263 343T207 257T161 122L146 58Q172 48 206 48Q260 48 291 90T338 206Q350
262 350 299Z" />
<glyph unicode="c" glyph-name="c" horiz-adv-x="394" d="M89 -9T56 35T22 150Q22 188 32 236Q55 338 116 402T283 467Q314 467 342 460T389 440Q370 385 367 331Q352 325 330 325Q322 325 308 327Q311 371 300 391T261 411Q218 411 192 369T153 256Q145 214 145
177Q145 71 221 71Q250 71 278 84T330 121Q345 106 350 78Q270 -9 163 -9Q89 -9 56 35Z" />
<glyph unicode="d" glyph-name="d" horiz-adv-x="520" d="M419 178Q407 108 407 90Q407 79 410 76T419 72Q429 72 440 78T469 98Q486 81 491 57Q430 -9 364 -9Q324 -9 307 13T289 70Q289 94 295 116Q304 153 321 194H318Q286 106 231 49T115 -9Q66 -9 42 25T17
122Q17 157 27 210Q42 284 80 342T176 434T305 467Q327 467 352 462Q353 488 360 526Q368 571 368 588Q368 610 356 615T308 621Q308 650 316 669Q350 671 398 683T477 710Q502 698 502 664Q502 648 500 639L419 178ZM201 86T229 115T285 201T331 336L346 400Q320
410 286 410Q232 410 201 368T154 252Q142 197 142 159Q142 123 152 105T181 86Q201 86 229 115Z" />
<glyph unicode="e" glyph-name="e" horiz-adv-x="408" d="M333 467T363 440T394 373Q394 329 358 290T264 225T146 194Q139 73 219 73Q277 73 323 122Q340 105 343 78Q264 -9 158 -9Q86 -9 54 34T22 148Q22 183 30 225Q46 303 82 357T169 439T276 467Q333 467
363 440ZM300 383T289 396T256 410Q223 410 195 369T153 249L152 244Q217 249 258 280T300 360Q300 383 289 396Z" />
<glyph unicode="f" glyph-name="f" horiz-adv-x="327" d="M414 714T443 708T488 691Q477 666 470 632T462 570Q452 565 436 562T404 560Q402 609 389 634T348 660Q325 660 310 643T280 580T249 448H346Q346 413 338 397Q292 397 238 388Q229 338 220 281T205 196Q205
193 195 132Q167 -37 103 -142T-52 -248Q-106 -248 -147 -208Q-149 -168 -135 -136Q-88 -154 -26 -154Q2 -154 17 -142T44 -86T69 52L84 166Q101 305 114 390Q72 398 41 398Q41 432 53 448H123L124 454Q170 714 378 714Q414 714 443 708Z" />
<glyph unicode="g" glyph-name="g" horiz-adv-x="485" d="M452 461T456 454T460 432Q460 421 457 403L408 118Q380 -44 310 -146T135 -248Q60 -248 -3 -199Q-6 -157 9 -126Q48 -141 93 -149T180 -157Q210 -157 224 -146T247 -98T272 33Q281 88 313 175L320 194H318Q286
106 231 49T115 -9Q66 -9 42 25T17 122Q17 157 27 210Q42 284 80 342T176 434T305 467Q347 467 378 455Q421 458 443 467Q452 461 456 454ZM201 86T229 115T285 201T331 336L346 400Q320 410 286 410Q232 410 201 368T154 252Q142 197 142 159Q142 123 152 105T181
86Q201 86 229 115Z" />
<glyph unicode="h" glyph-name="h" horiz-adv-x="545" d="M510 81T515 56Q450 -9 387 -9Q345 -9 328 10T310 66Q310 97 324 158L348 262Q358 303 358 330Q358 373 331 373Q307 373 275 343T213 255T167 125L145 0H26L119 526Q126 564 126 586Q126 608 114 614T67
621Q65 648 75 669Q115 673 159 684T236 710Q249 703 255 693T261 666Q261 654 258 639Q228 467 213 402T175 263H176L199 311Q217 348 249 384T319 443T394 467Q432 467 457 441T483 356Q483 318 472 273L446 162Q432 103 432 85Q432 77 434 75T444 72Q453 72
467 79T493 98Q510 81 515 56Z" />
<glyph unicode="i" glyph-name="i" horiz-adv-x="275" d="M162 558T147 572T132 612Q132 649 155 672T215 695Q241 695 256 681T272 641Q272 604 249 581T188 558Q162 558 147 572ZM39 -9T39 73Q39 104 50 145L85 274Q100 331 100 347Q100 366 88 372T42 378Q40
407 50 426Q82 428 123 440T193 467Q232 450 232 404Q232 378 222 342L173 151Q161 106 161 90Q161 81 165 77T177 73Q198 73 224 98Q232 91 238 80T245 56Q183 -9 118 -9Q39 -9 39 73Z" />
<glyph unicode="j" glyph-name="j" horiz-adv-x="254" d="M161 558T146 572T131 612Q131 649 154 672T214 695Q240 695 255 681T271 641Q271 604 248 581T187 558Q161 558 146 572ZM-112 -232T-113 -202Q-47 -158 -8 -97T47 51L93 300Q98 328 98 341Q98 363 86
370T38 378Q36 405 46 426Q79 428 123 440T195 467Q213 457 220 446T228 412Q228 393 218 336L173 88Q148 -49 86 -125T-94 -248Q-112 -232 -113 -202Z" />
<glyph unicode="k" glyph-name="k" horiz-adv-x="504" d="M478 322T431 282T293 210Q307 194 321 172T355 119Q371 92 381 84T404 75Q415 75 424 80T448 99Q466 82 471 57Q407 -9 344 -9Q307 -9 285 12T241 80Q219 127 178 184Q174 154 172 146L145 0H26L119 526Q126
564 126 586Q126 608 114 614T67 621Q65 648 75 669Q115 673 159 684T236 710Q249 703 255 693T261 667Q261 656 258 639Q233 496 220 437T186 308H187Q221 379 272 423T383 467Q427 467 452 443T478 381Q478 322 431 282ZM358 364T350 375T324 387Q301 387 274
366T223 306T183 218Q270 238 314 268T358 345Q358 364 350 375Z" />
<glyph unicode="l" glyph-name="l" horiz-adv-x="277" d="M38 -9T41 78Q41 112 54 187T119 526Q128 575 128 586Q128 608 116 614T68 621Q68 653 76 669Q110 671 158 683T237 710Q250 703 256 693T262 666Q262 654 259 639Q216 401 178 213Q163 138 163 104Q163
86 167 80T180 73Q198 73 226 98Q243 83 248 58Q221 28 187 10T121 -9Q38 -9 41 78Z" />
<glyph unicode="m" glyph-name="m" horiz-adv-x="828" d="M627 -9T610 9T593 66Q593 93 607 158L627 243Q641 305 641 333Q641 373 616 373Q593 373 560 343T497 253T449 108L428 0H311L354 215Q371 302 371 333Q371 355 365 364T346 373Q321 373 289 342T227
251T181 108L160 0H41L94 283Q102 326 102 343Q102 365 90 371T42 378Q40 406 50 426Q84 428 132 440T210 467Q236 457 236 423Q236 418 234 402Q221 332 196 274H197L214 311Q231 347 262 383T332 442T407 466Q444 466 466 444T489 377Q489 363 488 356Q483 317
466 274H467L483 309Q501 348 534 384T606 444T683 467Q724 467 745 439T766 359Q766 318 753 267L727 162Q713 107 713 88Q713 78 716 75T727 72Q738 72 749 78T778 98Q794 82 799 56Q738 -9 666 -9Q627 -9 610 9Z" />
<glyph unicode="n" glyph-name="n" horiz-adv-x="560" d="M525 81T530 56Q465 -9 402 -9Q360 -9 343 10T325 66Q325 97 339 158L363 262Q373 303 373 330Q373 373 346 373Q321 373 288 340T224 247T179 108L159 0H40L93 283Q101 326 101 344Q101 366 89 372T42
378Q42 411 50 426Q83 428 132 440T211 467Q237 457 237 422Q237 416 235 402Q223 337 198 278V277L214 311Q232 348 264 384T334 443T409 467Q447 467 472 441T498 356Q498 318 487 273L461 162Q447 103 447 85Q447 77 449 75T459 72Q468 72 482 79T508 98Q525
81 530 56Z" />
<glyph unicode="o" glyph-name="o" horiz-adv-x="498" d="M119 -9T73 40T26 172Q26 205 31 230Q51 338 122 402T293 467Q379 467 426 419T473 288Q473 267 468 235Q456 163 420 108T328 22T205 -9Q119 -9 73 40ZM259 46T292 94T341 227Q348 262 348 296Q348 349
330 380T279 412Q238 412 205 365T158 239Q151 201 151 164Q151 109 168 78T218 46Q259 46 292 94Z" />
<glyph unicode="p" glyph-name="p" horiz-adv-x="510" d="M444 468T468 434T493 337Q493 302 483 249Q468 175 430 117T334 25T205 -8Q176 -8 152 -2Q155 -47 140 -130L120 -244H0L93 282Q101 325 101 342Q101 364 89 370T42 376Q42 409 50 425Q82 426 128 439T206
466Q231 454 231 419Q231 413 229 399Q219 337 197 282L191 265H192Q224 353 279 410T395 468Q444 468 468 434ZM368 263T368 300Q368 336 358 354T329 373Q309 373 281 344T225 258T179 123L164 59Q190 49 224 49Q278 49 309 91T356 207Q368 263 368 300Z" />
<glyph unicode="q" glyph-name="q" horiz-adv-x="500" d="M366 467T408 452T479 406Q465 383 452 340T428 241L343 -242H224L274 43Q283 96 316 182L319 194H318Q286 106 231 49T115 -9Q66 -9 42 25T17 122Q17 157 27 210Q42 284 80 342T176 434T304 467H305V467H307Q366
467 408 452ZM201 86T229 115T285 201T331 336L346 400Q320 410 286 410Q232 410 201 368T154 252Q142 197 142 159Q142 123 152 105T181 86Q201 86 229 115Z" />
<glyph unicode="r" glyph-name="r" horiz-adv-x="411" d="M230 457T230 425Q230 402 218 358T184 264H185L206 309Q241 384 279 425T365 467Q394 467 416 451Q394 383 389 310Q365 297 323 299Q324 306 324 318Q324 353 307 353Q282 353 242 281Q222 245 203 191T172
78L157 0H37L91 283Q100 325 100 345Q100 366 88 372T42 378Q42 411 50 426Q83 428 128 440T206 467Q230 457 230 425Z" />
<glyph unicode="s" glyph-name="s" horiz-adv-x="399" d="M280 467T319 458T385 434Q367 378 366 317Q342 305 302 307Q301 363 285 388T234 413Q206 413 191 401T176 366Q176 345 192 326T243 278Q289 240 314 207T340 130Q340 115 337 100Q325 43 281 17T159
-9Q110 -9 71 2T5 30Q22 86 24 147Q53 159 88 156Q86 102 104 74T165 46Q194 46 209 59T225 92Q225 111 211 128T164 176Q118 216 93 250T68 331Q68 344 71 359Q81 414 125 440T242 467Q280 467 319 458Z" />
<glyph unicode="t" glyph-name="t" horiz-adv-x="343" d="M196 214Q183 158 183 123Q183 68 217 68Q233 68 251 78T283 106Q291 98 298 86T306 62Q284 34 244 13T164 -9Q112 -9 87 19T61 106Q61 150 74 206L117 390Q77 398 44 398Q44 430 56 448H131L133 458Q135
470 141 496Q156 566 158 592Q184 595 212 603T257 620Q276 613 276 582Q276 558 260 486L251 448H357Q357 413 349 397Q281 397 237 388L196 214Z" />
<glyph unicode="u" glyph-name="u" horiz-adv-x="552" d="M57 -9T57 98Q57 151 74 219Q98 315 98 344Q98 366 87 371T42 378Q40 406 50 426Q82 428 131 441T208 467Q221 459 226 451T231 426Q231 406 223 364T194 237Q179 174 179 140Q179 88 211 88Q233 88 264
119T325 210T371 356L390 458H509L461 209Q442 111 442 90Q442 78 445 75T457 72Q474 72 501 98Q508 91 514 80T523 57Q496 28 463 10T398 -9Q317 -9 317 68Q317 78 321 104Q326 130 337 152H336Q305 89 249 40T135 -9Q57 -9 57 98Z" />
<glyph unicode="v" glyph-name="v" horiz-adv-x="494" d="M444 457T458 433T472 365Q472 296 413 209T207 -9Q191 -10 175 -7T147 3Q140 82 125 171T94 317Q84 354 70 366T18 377Q18 406 25 426Q53 429 91 441T150 467Q168 461 176 452T189 427T203 371Q232 238
249 92Q304 157 331 210T359 300Q359 338 343 356T292 377Q290 386 290 403Q290 418 291 425Q320 431 358 444T415 468Q444 457 458 433Z" />
<glyph unicode="w" glyph-name="w" horiz-adv-x="733" d="M679 457T694 432T710 360Q710 293 656 207T467 -9Q431 -11 407 3Q395 124 376 214Q356 157 318 107T207 -9Q191 -10 175 -7T147 3Q140 82 125 171T94 317Q84 354 70 366T18 377Q18 406 25 426Q53 429
91 441T150 467Q168 461 176 452T189 427T203 371Q234 231 248 95Q294 152 315 200T337 305Q337 358 317 433Q362 442 392 467Q407 463 415 455T429 430T445 372Q483 217 500 96Q551 157 574 208T598 296Q598 336 581 355T529 377Q525 397 525 406Q525 413 527
425Q558 431 595 444T650 467Q679 457 694 432Z" />
<glyph unicode="x" glyph-name="x" horiz-adv-x="483" d="M344 365T321 331T278 247Q285 221 301 175T326 112Q337 89 346 82T369 74Q387 74 415 99Q431 82 437 57Q412 29 378 10T314 -9Q282 -9 261 3T228 41Q210 80 189 142Q155 76 113 34T26 -9Q9 -9 -2 -6T-23
4Q-14 30 -9 67T-3 136Q24 149 58 147Q59 118 65 108T82 97Q99 97 121 125T165 199L131 319Q122 355 105 367T48 377Q45 403 55 426Q84 429 125 442T186 467Q202 464 211 453T227 414L252 306Q287 376 330 421T420 467Q454 467 476 451Q463 421 455 385T446 315Q419
302 388 305Q388 340 382 352T362 365Q344 365 321 331Z" />
<glyph unicode="y" glyph-name="y" horiz-adv-x="484" d="M467 448T467 385Q467 324 425 245T276 24Q187 -95 137 -152T52 -228T-23 -248Q-79 -248 -120 -208Q-122 -168 -108 -136Q-62 -154 -6 -154Q33 -154 66 -135T148 -57Q139 67 126 154T91 317Q84 343 77
355T56 373T16 377Q14 406 23 426Q51 429 89 441T147 467Q170 460 179 445T198 383Q235 211 242 70Q353 229 353 319Q353 372 290 377Q287 391 287 405Q287 411 289 425Q318 431 356 444T413 468Q467 448 467 385Z" />
<glyph unicode="z" glyph-name="z" horiz-adv-x="415" d="M335 154T351 150T378 139Q366 114 359 80T349 14Q342 2 323 -3T261 -9Q216 -9 169 -4Q117 0 91 0Q46 0 4 -9Q-3 2 -6 16T-8 43Q193 212 297 356Q259 362 220 362Q172 362 150 350T105 300Q89 300 75 305T51
320Q88 389 98 458Q166 463 245 463Q322 463 389 458Q396 449 400 436T405 412Q357 335 287 252T137 95Q159 102 186 102L216 101Q238 99 248 99Q278 99 291 109T320 153Q335 154 351 150Z" />
<glyph unicode="{" glyph-name="braceleft" horiz-adv-x="357" d="M408 735T408 715Q408 705 407 701Q352 690 326 660T292 593T283 493Q280 425 272 383T231 307T130 259Q185 243 208 211T232 133Q232 104 226 72T206 -7Q194 -50 188 -80T181 -136Q181 -208 245
-231Q247 -257 231 -274Q153 -251 122 -208T90 -106Q90 -64 108 18Q125 94 125 130Q125 169 109 196T52 239Q52 265 64 280Q113 295 136 324T167 388T177 479Q182 553 195 600T255 687T402 745Q408 735 408 715Z" />
<glyph unicode="|" glyph-name="bar" horiz-adv-x="152" d="M139 711Q159 720 178 720Q189 720 201 717Q114 292 16 -237Q-3 -247 -27 -247Q-39 -247 -45 -246L139 711Z" />
<glyph unicode="}" glyph-name="braceright" horiz-adv-x="359" d="M212 718T244 677T277 583Q277 561 272 533T260 478Q254 453 249 428T244 383Q244 350 260 325T314 282Q317 273 317 264Q317 257 313 241Q264 226 238 193T202 120T184 14Q174 -70 158 -122T96
-216T-42 -274Q-48 -262 -48 -250Q-48 -239 -44 -230Q7 -222 32 -192T64 -122T75 -15Q78 62 88 111T133 201T240 258Q182 274 158 301T134 369Q134 393 140 420T160 486Q173 526 179 552T186 601Q186 635 169 660T112 703Q116 732 131 745Q212 718 244 677Z" />
<glyph unicode="~" glyph-name="asciitilde" horiz-adv-x="550" d="M61 193T54 200T44 218Q112 326 186 326Q209 326 232 318T286 294Q317 279 338 272T380 264Q425 264 469 314Q491 311 506 293Q440 189 371 189Q348 189 327 197T275 223Q243 240 224 248T182
256Q127 256 74 187Q61 193 54 200Z" />
<glyph unicode="&#xa0;" glyph-name="uni00A0" horiz-adv-x="186" />
<glyph unicode="&#xa1;" glyph-name="exclamdown" horiz-adv-x="417" d="M267 467T285 451T303 407Q303 394 301 387Q296 361 277 346T229 330Q203 330 185 347T166 393Q166 397 168 409Q173 436 191 451T237 467Q267 467 285 451ZM87 -116T117 3T172 228Q178
229 189 229Q214 229 232 220Q206 -8 198 -220Q167 -226 134 -235T79 -256Q58 -249 58 -226Q58 -213 64 -192Q87 -116 117 3Z" />
<glyph unicode="&#xa2;" glyph-name="cent" horiz-adv-x="394" d="M352 325T330 325Q322 325 308 327L309 345Q309 391 286 405Q254 251 222 71Q278 71 330 121Q345 106 350 78Q289 11 209 -5L201 -51Q191 -107 187 -136Q147 -134 129 -117L150 -9Q83 -5 53 38T22
150Q22 188 32 236Q52 327 103 389T240 464L268 613Q305 613 327 595L299 466Q357 463 389 440Q370 385 367 331Q352 325 330 325ZM145 214T145 178Q145 117 169 92L228 403Q174 377 153 256Q145 214 145 178Z" />
<glyph unicode="&#xa3;" glyph-name="sterling" horiz-adv-x="532" d="M475 502T460 502Q442 502 425 507L426 528Q426 581 404 605T336 629Q298 629 271 604T236 536Q233 518 233 502Q233 481 237 465T249 422Q255 405 259 385T265 346H392Q394 310 376 284H258Q248
242 224 204T153 119Q181 135 205 141T258 148Q282 148 301 141T346 121Q349 120 363 113T390 105Q419 105 436 135Q448 133 461 124T479 106Q463 54 429 23T351 -9Q325 -9 308 -3T264 17Q239 32 216 39T159 47Q124 47 90 34T20 -9Q-6 7 -14 42Q58 95 90 137T134
242Q137 257 137 283Q92 283 36 281Q34 321 52 346H127Q126 352 121 373T112 416T109 457Q109 483 113 507Q122 555 153 595T237 660T356 685Q450 685 512 642Q496 574 493 507Q475 502 460 502Z" />
<glyph unicode="&#xa4;" glyph-name="currency" horiz-adv-x="483" d="M413 183T373 139L432 74Q425 66 411 61T380 54L334 106Q287 76 228 76Q163 76 121 110L64 56Q51 57 37 64T15 81L89 145Q65 184 65 237Q65 261 69 281Q78 330 109 368L57 424Q66 431 81 436T111
443L148 401Q196 432 261 432Q332 432 377 395L433 445Q447 441 459 434T477 417L407 359Q427 325 427 282Q427 266 424 246Q413 183 373 139ZM128 258T128 242Q128 189 157 158T237 126Q282 126 317 158T361 239Q364 256 364 271Q364 322 334 352T252 383Q205
383 172 353T131 276Q128 258 128 242Z" />
<glyph unicode="&#xa5;" glyph-name="yen" horiz-adv-x="588" d="M626 676T661 679Q659 648 650 626Q629 618 612 602T563 535Q530 482 464 380H560Q562 345 545 318H422L385 266L382 250H544Q544 215 526 189H372L363 140Q358 113 358 101Q358 77 373 67T433
50Q437 35 437 15Q437 3 436 -3Q393 0 289 0Q174 0 133 -3Q133 28 143 50Q182 56 200 65T225 91T241 150L248 188L90 185Q88 224 104 250H258L261 267L246 318L106 315Q104 354 123 380H225Q196 467 170 532Q155 570 145 588T126 614T100 627Q98 635 98 654Q98
670 99 679Q140 676 223 676Q310 676 363 679Q363 651 353 626Q319 621 304 612T289 582Q289 565 297 546Q329 462 364 326Q428 421 489 530Q512 571 512 592Q512 605 501 613T467 626Q464 640 464 654Q464 661 466 679Q499 676 568 676Q626 676 661 679Z" />
<glyph unicode="&#xa6;" glyph-name="brokenbar" horiz-adv-x="153" d="M139 711Q159 720 178 720Q189 720 201 717Q150 472 127 331Q110 322 91 322Q83 322 65 326L139 711ZM33 164Q48 171 68 171Q84 171 96 167Q67 36 16 -237Q-3 -247 -27 -247Q-39 -247 -45
-246L33 164Z" />
<glyph unicode="&#xa7;" glyph-name="section" horiz-adv-x="518" d="M240 550T265 524T345 459Q391 428 420 403T470 342T491 260Q491 242 486 217Q474 160 431 119T318 55Q386 -7 386 -82Q386 -103 382 -120Q371 -178 318 -212T187 -247Q99 -247 39 -205Q53
-128 52 -75Q73 -67 99 -67L115 -68Q116 -139 137 -166T204 -193Q237 -193 258 -172T280 -118Q280 -83 254 -56T174 8Q127 40 98 65T49 126T28 208Q28 226 33 251Q45 308 88 349T201 413Q169 442 152 475T134 549Q134 568 138 587Q148 645 201 680T332 715Q422
715 480 672Q467 604 467 542Q446 534 418 534L404 535Q403 606 382 633T315 660Q281 660 261 640T240 584Q240 550 265 524ZM371 259T345 289T266 360L248 373Q204 357 177 324T149 249Q149 217 165 192T201 150T271 94Q316 111 343 144T371 218Q371 259 345 289Z"
/>
<glyph unicode="&#xa8;" glyph-name="dieresis" horiz-adv-x="300" d="M99 522T84 537T69 578Q69 588 72 598Q83 651 135 651Q162 651 177 637T193 598Q193 586 191 579Q185 553 168 538T125 522Q99 522 84 537ZM273 523T258 537T243 577Q243 582 245 594Q256
651 312 651Q338 651 353 639T369 600Q369 596 367 582Q362 554 345 539T301 523Q273 523 258 537Z" />
<glyph unicode="&#xa9;" glyph-name="copyright" horiz-adv-x="740" d="M245 -113T177 -77T71 24T34 176Q34 213 44 266Q63 360 113 429T239 536T407 573Q500 573 567 537T670 434T706 283Q706 241 697 194Q678 98 628 29T503 -76T336 -113Q245 -113 177 -77ZM462
-61T541 7T646 195Q655 237 655 276Q655 348 626 403T539 490T400 522Q280 522 201 454T95 265Q86 222 86 182Q86 110 116 55T203 -30T341 -61Q462 -61 541 7ZM243 14T211 53T178 159Q178 193 188 238Q210 331 270 390T432 449Q463 449 490 443T535 424Q517 371
514 325Q499 319 478 319Q470 319 456 321L457 338Q457 369 446 383T411 398Q333 398 306 256Q298 218 298 183Q298 87 372 87Q400 87 427 99T478 133Q493 118 497 93Q419 14 315 14Q243 14 211 53Z" />
<glyph unicode="&#xaa;" glyph-name="ordfeminine" horiz-adv-x="483" d="M449 445T454 432T461 409Q440 387 415 374T368 361Q337 361 324 377T310 418Q310 438 320 468H318Q291 420 255 391T179 361Q109 361 109 457Q109 489 116 524Q132 609 188 663T324 717Q354
717 379 708Q411 710 435 717Q449 708 449 689Q449 677 443 648L407 488Q401 457 401 446Q401 440 403 438T411 435Q426 435 443 451Q449 445 454 432ZM245 446T264 467T304 527T338 619L349 661Q334 666 311 666Q275 666 252 636T217 551Q209 509 209 487Q209
446 231 446Q245 446 264 467Z" />
<glyph unicode="&#xab;" glyph-name="guillemotleft" horiz-adv-x="450" d="M230 416T242 410T261 395Q233 366 199 326T146 259Q154 231 174 188T210 116Q198 90 175 76Q111 163 47 230Q49 263 65 283Q160 361 216 417Q230 416 242 410ZM403 409T415 403T434
388Q409 361 379 324T329 259Q338 230 353 191T383 122Q371 95 348 83Q287 167 231 230Q233 265 249 283Q336 355 389 410Q403 409 415 403Z" />
<glyph unicode="&#xac;" glyph-name="logicalnot" horiz-adv-x="550" d="M513 353L467 121Q445 109 421 109Q416 109 404 111L443 294H295Q146 294 66 292Q66 306 69 324T76 353H513Z" />
<glyph unicode="&#xad;" glyph-name="uni00AD" horiz-adv-x="371" d="M51 272T65 298H335Q334 254 320 224Q160 224 45 221Q51 272 65 298Z" />
<glyph unicode="&#xae;" glyph-name="registered" horiz-adv-x="519" d="M384 783T429 757T501 685T527 585Q527 530 501 485T429 413T329 387Q274 387 229 413T158 484T131 585Q131 640 157 685T228 756T329 783Q384 783 429 757ZM373 429T409 449T465 505T485
585Q485 628 465 664T409 720T329 741Q286 741 250 721T194 664T173 585Q173 542 193 506T249 450T329 429Q373 429 409 449ZM384 691T400 680T417 644Q417 617 403 595T362 563Q387 536 402 489Q387 483 371 483Q361 483 356 484Q346 527 326 555H302L291 485Q279
482 269 482Q259 482 248 485L279 682Q312 691 350 691Q384 691 400 680ZM372 626T372 633Q372 648 364 655T342 663Q335 663 319 659L307 584Q321 582 326 582Q364 582 371 622Q372 626 372 633Z" />
<glyph unicode="&#xaf;" glyph-name="overscore" horiz-adv-x="300" d="M43 591T45 606T52 631H404Q404 608 395 584Q186 584 43 580Q43 591 45 606Z" />
<glyph unicode="&#xb0;" glyph-name="degree" horiz-adv-x="394" d="M335 700T369 670T404 589Q404 523 362 483T252 443Q192 443 159 475T125 561Q125 576 128 591Q137 642 177 671T276 700Q335 700 369 670ZM248 656T232 639T210 594Q207 576 207 561Q207 528
220 509T258 489Q285 489 304 516T323 588Q323 619 309 637T270 656Q248 656 232 639Z" />
<glyph unicode="&#xb1;" glyph-name="plusminus" horiz-adv-x="550" d="M166 279T103 278Q102 313 112 336H263Q273 386 290 488Q308 494 326 494Q340 494 350 491L322 336H473Q474 331 474 321Q474 298 464 279H413H312L287 139Q274 133 255 133Q239 133 226
137Q237 202 253 279Q166 279 103 278ZM464 98L465 84Q465 60 454 42Q385 43 253 43Q108 43 22 40Q21 57 24 73T32 98H464Z" />
<glyph unicode="&#xb2;" glyph-name="uni00B2" horiz-adv-x="352" d="M386 642T363 619T279 555Q243 531 199 498H266Q290 498 301 500T317 510T329 537Q359 537 374 531Q362 463 363 432Q350 409 326 409L197 410L80 409Q73 420 73 435Q73 446 76 458Q120 495
197 553Q245 589 263 611T287 662Q289 674 289 680Q289 718 250 718Q225 718 210 699T178 628Q148 628 126 636Q132 655 137 682T143 728Q205 762 286 762Q394 762 394 694Q394 689 392 675Q386 642 363 619Z" />
<glyph unicode="&#xb3;" glyph-name="uni00B3" horiz-adv-x="341" d="M362 566T269 552Q310 545 333 523T356 461Q356 447 353 430Q340 367 288 329T155 291Q76 291 46 332Q50 350 65 359Q74 348 92 343T131 337Q177 337 210 364T252 437Q254 451 254 456Q254
489 230 504T165 523Q163 529 163 534Q163 547 171 563Q216 564 245 590T284 663Q286 679 286 684Q286 703 276 711T246 719Q215 719 199 700T166 628Q152 627 138 630T115 641Q129 699 130 737Q184 761 255 761Q319 761 351 740T384 677Q384 664 381 649Q362 566
269 552Z" />
<glyph unicode="&#xb4;" glyph-name="acute" horiz-adv-x="300" d="M233 722T262 722Q307 722 333 706Q242 619 174 525Q144 528 122 545Q152 593 176 639T212 717Q233 722 262 722Z" />
<glyph unicode="&#xb5;" glyph-name="uni00B5" horiz-adv-x="555" d="M511 92T517 80T526 57Q498 27 465 9T398 -9Q329 -9 329 65Q329 76 333 104Q338 129 349 152H347Q325 89 281 40T195 -9Q167 -9 154 12T139 69L117 -45Q106 -105 106 -142Q106 -163 109 -181Q79
-192 57 -206T4 -246Q-15 -234 -17 -207Q-16 -203 -6 -176T19 -71L86 260Q99 325 99 343Q99 365 88 371T42 378Q40 406 50 426Q83 428 132 441T209 467Q222 459 227 451T233 426Q233 407 223 358T196 237Q181 174 181 138Q181 89 210 89Q233 89 264 117T324 206T372
357L392 458H511L463 209Q444 110 444 90Q444 79 447 76T457 72Q468 72 478 78T503 99Q511 92 517 80Z" />
<glyph unicode="&#xb6;" glyph-name="paragraph" horiz-adv-x="564" d="M584 676T613 679Q613 653 603 626Q573 623 560 616T540 592T527 540Q484 317 458 163T391 -247Q383 -248 369 -248Q344 -248 330 -242L482 623Q464 625 430 627Q347 193 277 -249Q237 -251
217 -238L313 308Q300 306 272 306Q180 306 131 345T82 458Q82 483 86 504Q101 586 176 632T387 679Q420 679 470 677L536 676Q584 676 613 679ZM321 355L369 628Q292 627 256 601T208 511Q204 491 204 469Q204 412 234 384T311 355H321Z" />
<glyph unicode="&#xb7;" glyph-name="middot" horiz-adv-x="227" d="M91 207T73 223T55 267Q55 280 57 287Q62 313 81 328T129 344Q155 344 173 327T192 281Q192 277 190 265Q185 238 167 223T121 207Q91 207 73 223Z" />
<glyph unicode="&#xb8;" glyph-name="cedilla" horiz-adv-x="300" d="M-11 -235T-11 -224Q-11 -217 -9 -205Q33 -205 57 -191T81 -147Q81 -127 66 -116T27 -104Q16 -91 16 -75Q16 -67 17 -63L86 16H151L92 -53Q155 -67 155 -128Q155 -140 152 -155Q143 -199 101
-221T-8 -242Q-11 -235 -11 -224Z" />
<glyph unicode="&#xb9;" glyph-name="uni00B9" horiz-adv-x="273" d="M73 428T83 450Q113 453 124 466T144 520L169 649Q174 676 174 686Q174 703 165 709T135 717Q133 727 133 734Q133 747 136 760Q158 758 237 758Q316 758 338 760Q336 737 328 717Q298 715
287 703T268 649L243 521Q238 494 238 482Q238 464 246 458T275 450Q277 440 277 433Q277 422 274 408L174 410Q123 410 73 408Q73 428 83 450Z" />
<glyph unicode="&#xba;" glyph-name="ordmasculine" horiz-adv-x="441" d="M377 717T412 681T447 581Q447 558 443 537Q428 453 375 406T244 358Q181 358 147 394T112 491Q112 510 117 537Q134 621 185 669T314 717Q377 717 412 681ZM245 667T223 544Q217 510
217 483Q217 448 226 429T254 409Q281 409 303 442T336 534Q341 560 341 590Q341 626 332 646T304 667Q245 667 223 544Z" />
<glyph unicode="&#xbb;" glyph-name="guillemotright" horiz-adv-x="459" d="M347 353T412 285Q418 272 418 256Q418 246 414 232Q325 161 236 80Q216 96 211 124Q286 194 327 244Q315 275 295 320T254 402Q274 417 301 415Q347 353 412 285ZM167 350T224 285Q230
272 230 256Q230 246 226 232Q145 167 62 86Q40 103 37 130Q100 192 140 244Q114 321 78 395Q99 411 126 409Q167 350 224 285Z" />
<glyph unicode="&#xbc;" glyph-name="onequarter" horiz-adv-x="874" d="M330 727T334 722T338 706Q338 703 336 687L281 405Q276 377 276 365Q276 342 289 335T340 325Q342 305 337 279Q255 281 197 281Q139 281 61 279Q67 311 75 325Q112 328 129 333T156 354T174
405L209 581Q213 605 213 612Q213 627 206 634T179 643T122 646Q127 675 137 695Q240 701 319 730Q330 727 334 722ZM160 -4T147 4T127 22L772 714Q784 712 797 703T820 684L176 -8Q160 -4 147 4ZM742 109Q739 91 739 80Q739 61 748 56T781 49Q783 39 781 22T777
-3Q737 0 665 0Q589 0 553 -3Q559 34 568 49Q605 50 621 61T646 109L647 116Q557 115 482 109Q470 127 470 151Q470 156 472 170Q561 258 622 320T741 450L758 451Q785 451 807 443L759 195H801Q815 195 822 192T833 182Q815 157 802 117H744L742 109ZM662 195L689
333L562 195H662Z" />
<glyph unicode="&#xbd;" glyph-name="onehalf" horiz-adv-x="960" d="M330 727T334 722T338 706Q338 703 336 687L281 405Q276 377 276 365Q276 342 289 335T340 325Q342 305 337 279Q255 281 197 281Q139 281 61 279Q67 311 75 325Q112 328 129 333T156 354T174
405L209 581Q213 605 213 612Q213 627 206 634T179 643T122 646Q127 675 137 695Q240 701 319 730Q330 727 334 722ZM160 -4T147 4T127 22L772 714Q784 712 797 703T820 684L176 -8Q160 -4 147 4ZM918 302T892 273T804 197L778 177Q713 126 687 103H763Q793 103
808 107T832 124T850 163Q865 164 881 162T908 155Q887 66 890 24Q873 -2 840 -2Q833 -2 796 -1T715 0Q658 0 621 -1L559 -2Q551 10 551 31Q551 38 553 54Q646 143 722 209Q759 240 778 266T803 325Q805 333 805 347Q805 391 760 391Q731 391 713 369T676 286Q640
286 611 296Q629 348 636 419Q706 449 793 449Q861 449 895 430T930 369Q930 359 927 345Q918 302 892 273Z" />
<glyph unicode="&#xbe;" glyph-name="threequarters" horiz-adv-x="915" d="M436 589T400 559T300 523Q354 516 384 491T414 425Q414 411 412 403Q400 341 343 308T189 275Q104 275 51 313Q64 351 67 401Q78 404 90 404Q110 404 128 398Q127 356 139 340T188 323Q228
323 255 345T290 404Q291 409 291 417Q291 478 178 484Q177 488 177 496Q177 518 187 534Q240 534 275 558T318 626Q319 631 319 641Q319 682 271 682Q240 682 222 663T187 596Q146 602 129 620Q143 666 142 707Q202 730 290 730Q362 730 399 706T436 638Q436 589
400 559ZM201 -4T188 4T168 22L813 714Q825 712 838 703T861 684L217 -8Q201 -4 188 4ZM783 109Q780 91 780 80Q780 61 789 56T822 49Q824 39 822 22T818 -3Q778 0 706 0Q630 0 594 -3Q600 34 609 49Q646 50 662 61T687 109L688 116Q598 115 523 109Q511 127 511
151Q511 156 513 170Q602 258 663 320T782 450L799 451Q826 451 848 443L800 195H842Q856 195 863 192T874 182Q856 157 843 117H785L783 109ZM703 195L730 333L603 195H703Z" />
<glyph unicode="&#xbf;" glyph-name="questiondown" horiz-adv-x="528" d="M322 466T340 450T358 406Q358 393 356 386Q351 360 332 345T284 329Q258 329 240 346T221 392Q221 396 223 408Q228 435 246 450T292 466Q322 466 340 450ZM300 -231T259 -244T173 -257Q100
-257 58 -227T15 -141Q15 -126 18 -111Q26 -69 50 -40T119 29Q165 68 191 100T226 180Q230 195 230 224Q230 239 229 246Q247 257 278 257Q290 247 297 224T305 172Q305 152 301 133Q292 86 270 55T209 -14Q176 -47 161 -67T140 -117Q138 -126 138 -144Q138 -173
151 -189T191 -206Q222 -206 245 -176T290 -75Q311 -75 324 -78T349 -89Q337 -129 332 -154T325 -213Q300 -231 259 -244Z" />
<glyph unicode="&#xc0;" glyph-name="Agrave" horiz-adv-x="693" d="M636 37T636 20Q636 5 635 -3Q600 0 511 0Q419 0 379 -3Q381 32 389 50Q422 55 435 64T448 95Q448 113 443 130L425 204Q270 204 170 199L138 146Q114 106 114 84Q114 69 124 61T156 50Q159
34 159 17Q159 4 158 -3Q129 0 57 0Q-3 0 -30 -3Q-28 30 -20 50Q4 56 26 78T82 158Q195 348 381 676Q400 682 430 682Q478 520 507 407T572 150Q582 109 590 89T607 62T633 50Q636 37 636 20ZM412 256Q399 311 369 421Q355 464 347 527Q314 460 290 416Q238 317
202 256H412ZM454 736T439 736Q424 736 411 741Q392 768 367 795T298 864Q331 874 365 874Q386 874 411 869Q431 797 462 740Q454 736 439 736Z" />
<glyph unicode="&#xc1;" glyph-name="Aacute" horiz-adv-x="693" d="M636 37T636 20Q636 5 635 -3Q600 0 511 0Q419 0 379 -3Q381 32 389 50Q422 55 435 64T448 95Q448 113 443 130L425 204Q270 204 170 199L138 146Q114 106 114 84Q114 69 124 61T156 50Q159
34 159 17Q159 4 158 -3Q129 0 57 0Q-3 0 -30 -3Q-28 30 -20 50Q4 56 26 78T82 158Q195 348 381 676Q400 682 430 682Q478 520 507 407T572 150Q582 109 590 89T607 62T633 50Q636 37 636 20ZM412 256Q399 311 369 421Q355 464 347 527Q314 460 290 416Q238 317
202 256H412ZM378 733T356 751Q383 782 405 817T438 878Q459 881 480 881Q530 881 560 866Q469 789 410 730Q378 733 356 751Z" />
<glyph unicode="&#xc2;" glyph-name="Acircumflex" horiz-adv-x="693" d="M636 37T636 20Q636 5 635 -3Q600 0 511 0Q419 0 379 -3Q381 32 389 50Q422 55 435 64T448 95Q448 113 443 130L425 204Q270 204 170 199L138 146Q114 106 114 84Q114 69 124 61T156 50Q159
34 159 17Q159 4 158 -3Q129 0 57 0Q-3 0 -30 -3Q-28 30 -20 50Q4 56 26 78T82 158Q195 348 381 676Q400 682 430 682Q478 520 507 407T572 150Q582 109 590 89T607 62T633 50Q636 37 636 20ZM412 256Q399 311 369 421Q355 464 347 527Q314 460 290 416Q238 317
202 256H412ZM281 734T275 748T268 775Q337 811 428 882Q433 883 443 883Q464 883 479 876Q517 832 595 756Q583 737 550 732Q489 772 428 794Q382 776 314 739L292 727Q281 734 275 748Z" />
<glyph unicode="&#xc3;" glyph-name="Atilde" horiz-adv-x="693" d="M636 37T636 20Q636 5 635 -3Q600 0 511 0Q419 0 379 -3Q381 32 389 50Q422 55 435 64T448 95Q448 113 443 130L425 204Q270 204 170 199L138 146Q114 106 114 84Q114 69 124 61T156 50Q159
34 159 17Q159 4 158 -3Q129 0 57 0Q-3 0 -30 -3Q-28 30 -20 50Q4 56 26 78T82 158Q195 348 381 676Q400 682 430 682Q478 520 507 407T572 150Q582 109 590 89T607 62T633 50Q636 37 636 20ZM412 256Q399 311 369 421Q355 464 347 527Q314 460 290 416Q238 317
202 256H412ZM457 744T442 749T406 765Q388 774 376 778T348 783Q312 783 267 747Q253 764 253 787Q253 796 254 800Q313 858 383 858Q404 858 420 853T458 837Q476 829 486 825T510 821Q540 821 575 854Q601 842 609 823Q549 744 477 744Q457 744 442 749Z" />
<glyph unicode="&#xc4;" glyph-name="Adieresis" horiz-adv-x="693" d="M636 37T636 20Q636 5 635 -3Q600 0 511 0Q419 0 379 -3Q381 32 389 50Q422 55 435 64T448 95Q448 113 443 130L425 204Q270 204 170 199L138 146Q114 106 114 84Q114 69 124 61T156 50Q159
34 159 17Q159 4 158 -3Q129 0 57 0Q-3 0 -30 -3Q-28 30 -20 50Q4 56 26 78T82 158Q195 348 381 676Q400 682 430 682Q478 520 507 407T572 150Q582 109 590 89T607 62T633 50Q636 37 636 20ZM412 256Q399 311 369 421Q355 464 347 527Q314 460 290 416Q238 317
202 256H412ZM293 728T278 743T263 786Q263 797 264 802Q267 827 283 840T327 854Q353 854 369 840T386 801Q386 795 384 783Q378 756 362 742T320 728Q293 728 278 743ZM501 729T485 744T468 787Q468 819 486 836T536 854Q563 854 578 839T593 798Q593 765 576
747T527 729Q501 729 485 744Z" />
<glyph unicode="&#xc5;" glyph-name="Aring" horiz-adv-x="693" d="M636 37T636 20Q636 5 635 -3Q600 0 511 0Q419 0 379 -3Q381 32 389 50Q422 55 435 64T448 95Q448 113 443 130L425 204Q270 204 170 199L138 146Q114 106 114 84Q114 69 124 61T156 50Q159 34
159 17Q159 4 158 -3Q129 0 57 0Q-3 0 -30 -3Q-28 30 -20 50Q4 56 26 78T82 158Q195 348 381 676Q400 682 430 682Q478 520 507 407T572 150Q582 109 590 89T607 62T633 50Q636 37 636 20ZM412 256Q399 311 369 421Q355 464 347 527Q314 460 290 416Q238 317 202
256H412ZM374 720T347 739T320 793Q320 834 351 857T437 880Q489 880 515 860T542 807Q542 801 540 791Q533 757 504 739T424 720Q374 720 347 739ZM462 760T471 795Q472 799 472 806Q472 821 462 831T434 842Q413 842 400 829T386 795Q386 779 397 770T427 760Q462
760 471 795Z" />
<glyph unicode="&#xc6;" glyph-name="AE" horiz-adv-x="873" d="M603 623L556 344H589Q647 344 672 360T704 424Q728 428 739 428Q746 428 764 426Q755 392 751 369T742 310Q734 258 730 197Q692 200 673 210Q676 257 657 276T583 295H548L524 154Q518 124 518
104Q518 74 534 64T593 53H600Q652 53 684 67T736 108T778 185Q816 179 838 158Q804 88 787 -3Q728 0 574 0Q383 0 309 -3Q309 24 319 50Q349 54 363 62T385 91T401 158L425 295Q316 293 268 290L154 133Q126 96 126 76Q126 58 156 50Q159 34 159 17Q159 4 158
-3Q129 0 57 0Q-3 0 -30 -3Q-28 30 -20 50Q6 56 31 75T95 145Q244 342 380 531Q403 563 403 586Q403 622 346 626Q344 635 344 655Q344 671 345 679Q430 676 523 676H525H610H612Q789 676 878 679Q869 609 869 548Q869 522 870 511Q846 502 807 502Q805 549 796
573T758 610T671 623H603ZM434 344L461 497Q472 559 486 609Q433 522 307 344H434Z" />
<glyph unicode="&#xc7;" glyph-name="Ccedilla" horiz-adv-x="629" d="M513 685T564 672T664 628Q642 564 631 476Q616 469 594 469Q580 469 566 472Q569 499 569 521Q569 585 541 609T456 634Q383 634 327 594T236 487T191 337Q187 299 187 281Q187 182 234 122T377
61Q472 61 562 114Q579 97 581 67Q478 -5 360 -9L322 -53Q385 -67 385 -128Q385 -140 382 -155Q373 -199 331 -221T222 -242Q219 -235 219 -224Q219 -217 221 -205Q263 -205 287 -190T311 -147Q311 -127 296 -116T257 -104Q246 -91 246 -75Q246 -67 247 -63L296
-6Q180 7 117 83T53 275Q53 302 58 337Q74 452 134 530T277 647T451 685Q513 685 564 672Z" />
<glyph unicode="&#xc8;" glyph-name="Egrave" horiz-adv-x="598" d="M318 623L275 369H317Q375 369 400 385T432 447Q456 451 467 451Q474 451 492 449Q484 416 479 391T470 333Q461 278 458 219Q420 222 401 233Q404 279 385 297T311 316H266L238 154Q233 121
233 105Q233 74 249 64T307 53H325Q377 53 409 67T462 108T504 185Q541 179 563 158Q528 82 512 -3Q453 0 288 0Q98 0 24 -3Q24 24 34 50Q64 54 78 63T100 92T116 158L180 529Q185 559 185 572Q185 600 171 611T123 626Q121 648 121 658Q121 671 122 679Q195 676
325 676H327Q514 676 603 679Q594 612 594 555Q594 539 596 511Q571 502 532 502Q530 548 521 573T484 610T396 623H318ZM418 736T403 736Q388 736 375 741Q356 768 331 795T262 864Q295 874 329 874Q350 874 375 869Q395 797 426 740Q418 736 403 736Z" />
<glyph unicode="&#xc9;" glyph-name="Eacute" horiz-adv-x="598" d="M318 623L275 369H317Q375 369 400 385T432 447Q456 451 467 451Q474 451 492 449Q484 416 479 391T470 333Q461 278 458 219Q420 222 401 233Q404 279 385 297T311 316H266L238 154Q233 121
233 105Q233 74 249 64T307 53H325Q377 53 409 67T462 108T504 185Q541 179 563 158Q528 82 512 -3Q453 0 288 0Q98 0 24 -3Q24 24 34 50Q64 54 78 63T100 92T116 158L180 529Q185 559 185 572Q185 600 171 611T123 626Q121 648 121 658Q121 671 122 679Q195 676
325 676H327Q514 676 603 679Q594 612 594 555Q594 539 596 511Q571 502 532 502Q530 548 521 573T484 610T396 623H318ZM342 733T320 751Q347 782 369 817T402 878Q423 881 444 881Q494 881 524 866Q433 789 374 730Q342 733 320 751Z" />
<glyph unicode="&#xca;" glyph-name="Ecircumflex" horiz-adv-x="598" d="M318 623L275 369H317Q375 369 400 385T432 447Q456 451 467 451Q474 451 492 449Q484 416 479 391T470 333Q461 278 458 219Q420 222 401 233Q404 279 385 297T311 316H266L238 154Q233
121 233 105Q233 74 249 64T307 53H325Q377 53 409 67T462 108T504 185Q541 179 563 158Q528 82 512 -3Q453 0 288 0Q98 0 24 -3Q24 24 34 50Q64 54 78 63T100 92T116 158L180 529Q185 559 185 572Q185 600 171 611T123 626Q121 648 121 658Q121 671 122 679Q195
676 325 676H327Q514 676 603 679Q594 612 594 555Q594 539 596 511Q571 502 532 502Q530 548 521 573T484 610T396 623H318ZM245 734T239 748T232 775Q301 811 392 882Q397 883 407 883Q428 883 443 876Q481 832 559 756Q547 737 514 732Q453 772 392 794Q346
776 278 739L256 727Q245 734 239 748Z" />
<glyph unicode="&#xcb;" glyph-name="Edieresis" horiz-adv-x="598" d="M318 623L275 369H317Q375 369 400 385T432 447Q456 451 467 451Q474 451 492 449Q484 416 479 391T470 333Q461 278 458 219Q420 222 401 233Q404 279 385 297T311 316H266L238 154Q233
121 233 105Q233 74 249 64T307 53H325Q377 53 409 67T462 108T504 185Q541 179 563 158Q528 82 512 -3Q453 0 288 0Q98 0 24 -3Q24 24 34 50Q64 54 78 63T100 92T116 158L180 529Q185 559 185 572Q185 600 171 611T123 626Q121 648 121 658Q121 671 122 679Q195
676 325 676H327Q514 676 603 679Q594 612 594 555Q594 539 596 511Q571 502 532 502Q530 548 521 573T484 610T396 623H318ZM257 728T242 743T227 786Q227 797 228 802Q231 827 247 840T291 854Q317 854 333 840T350 801Q350 795 348 783Q342 756 326 742T284
728Q257 728 242 743ZM465 729T449 744T432 787Q432 819 450 836T500 854Q527 854 542 839T557 798Q557 765 540 747T491 729Q465 729 449 744Z" />
<glyph unicode="&#xcc;" glyph-name="Igrave" horiz-adv-x="373" d="M184 557T184 576Q184 602 171 612T123 626Q121 646 121 658Q121 672 122 679Q184 676 256 676Q323 676 392 679Q390 649 381 626Q354 622 340 614T318 587T303 530L236 142Q231 112 231 98Q231
74 243 64T290 50Q294 30 294 19Q294 11 292 -3Q226 0 160 0Q80 0 24 -3Q26 28 35 50Q62 53 76 60T98 86T112 141L180 536Q184 557 184 576ZM304 736T289 736Q274 736 261 741Q242 768 217 795T148 864Q181 874 215 874Q236 874 261 869Q281 797 312 740Q304 736
289 736Z" />
<glyph unicode="&#xcd;" glyph-name="Iacute" horiz-adv-x="373" d="M184 557T184 576Q184 602 171 612T123 626Q121 646 121 658Q121 672 122 679Q184 676 256 676Q323 676 392 679Q390 649 381 626Q354 622 340 614T318 587T303 530L236 142Q231 112 231 98Q231
74 243 64T290 50Q294 30 294 19Q294 11 292 -3Q226 0 160 0Q80 0 24 -3Q26 28 35 50Q62 53 76 60T98 86T112 141L180 536Q184 557 184 576ZM228 733T206 751Q233 782 255 817T288 878Q309 881 330 881Q380 881 410 866Q319 789 260 730Q228 733 206 751Z" />
<glyph unicode="&#xce;" glyph-name="Icircumflex" horiz-adv-x="373" d="M143 725T137 756Q188 790 278 873L304 874Q319 874 328 871L419 732Q411 724 395 720T365 714Q318 759 278 785Q234 757 170 708Q143 725 137 756ZM184 557T184 576Q184 602 171 612T123
626Q121 646 121 658Q121 672 122 679Q184 676 256 676Q323 676 392 679Q390 649 381 626Q354 622 340 614T318 587T303 530L236 142Q231 112 231 98Q231 74 243 64T290 50Q294 30 294 19Q294 11 292 -3Q226 0 160 0Q80 0 24 -3Q26 28 35 50Q62 53 76 60T98 86T112
141L180 536Q184 557 184 576Z" />
<glyph unicode="&#xcf;" glyph-name="Idieresis" horiz-adv-x="373" d="M158 730T142 745T125 783Q125 810 143 829T197 848Q227 848 242 834T258 795Q258 790 256 778Q252 757 232 744T185 730Q158 730 142 745ZM330 730T314 745T298 784Q298 815 318 831T371
848Q398 848 414 833T431 795Q431 768 414 749T360 730Q330 730 314 745ZM184 557T184 576Q184 602 171 612T123 626Q121 646 121 658Q121 672 122 679Q184 676 256 676Q323 676 392 679Q390 649 381 626Q354 622 340 614T318 587T303 530L236 142Q231 112 231
98Q231 74 243 64T290 50Q294 30 294 19Q294 11 292 -3Q226 0 160 0Q80 0 24 -3Q26 28 35 50Q62 53 76 60T98 86T112 141L180 536Q184 557 184 576Z" />
<glyph unicode="&#xd0;" glyph-name="Eth" horiz-adv-x="734" d="M726 679T726 420Q726 377 717 326Q686 154 568 77T287 0H284Q92 0 21 -3Q22 25 32 50Q62 54 76 62T99 91T115 158L142 312L70 311Q70 327 72 345T79 373H152L181 539Q185 558 185 575Q185 602
172 612T124 627Q121 642 121 656Q121 665 123 679Q187 676 278 676L337 677Q379 679 400 679Q726 679 726 420ZM597 378T597 423Q597 533 538 580T383 627Q349 627 316 618L274 373H395Q395 333 385 312Q343 313 264 313L236 147Q231 115 231 100Q231 72 246 63T304
53Q535 53 587 327Q597 378 597 423Z" />
<glyph unicode="&#xd1;" glyph-name="Ntilde" horiz-adv-x="685" d="M704 676T735 679Q735 651 725 626Q701 619 688 606T665 564T646 480L562 -3Q544 -9 507 -9Q388 230 233 508L178 192Q170 142 170 118Q170 85 184 71T233 50Q236 37 236 20Q236 5 235 -3Q193
0 123 0Q62 0 19 -3Q21 26 28 50Q55 55 71 68T99 108T119 185L189 585Q188 589 184 595Q175 612 163 618T124 626Q121 640 121 656Q121 671 122 679Q161 676 201 676Q250 676 283 679Q403 472 540 199L589 488Q596 527 596 556Q596 590 582 604T532 626Q530 646
530 658Q530 672 531 679Q565 676 630 676Q704 676 735 679ZM486 744T471 749T435 765Q417 774 405 778T377 783Q341 783 296 747Q282 764 282 787Q282 796 283 800Q342 858 412 858Q433 858 449 853T487 837Q505 829 515 825T539 821Q569 821 604 854Q630 842
638 823Q578 744 506 744Q486 744 471 749Z" />
<glyph unicode="&#xd2;" glyph-name="Ograve" horiz-adv-x="741" d="M258 -9T192 27T90 128T54 281Q54 323 63 368Q81 460 134 532T267 644T438 685Q525 685 590 652T692 555T729 400Q729 357 720 307Q703 217 651 145T520 32T345 -9Q258 -9 192 27ZM447 44T508
117T591 310Q599 358 599 396Q599 466 577 519T515 602T422 632Q341 632 280 561T196 375Q186 326 186 276Q186 172 231 108T360 44Q447 44 508 117ZM483 736T468 736Q453 736 440 741Q421 768 396 795T327 864Q360 874 394 874Q415 874 440 869Q460 797 491 740Q483
736 468 736Z" />
<glyph unicode="&#xd3;" glyph-name="Oacute" horiz-adv-x="741" d="M258 -9T192 27T90 128T54 281Q54 323 63 368Q81 460 134 532T267 644T438 685Q525 685 590 652T692 555T729 400Q729 357 720 307Q703 217 651 145T520 32T345 -9Q258 -9 192 27ZM447 44T508
117T591 310Q599 358 599 396Q599 466 577 519T515 602T422 632Q341 632 280 561T196 375Q186 326 186 276Q186 172 231 108T360 44Q447 44 508 117ZM407 733T385 751Q412 782 434 817T467 878Q488 881 509 881Q559 881 589 866Q498 789 439 730Q407 733 385 751Z"
/>
<glyph unicode="&#xd4;" glyph-name="Ocircumflex" horiz-adv-x="741" d="M258 -9T192 27T90 128T54 281Q54 323 63 368Q81 460 134 532T267 644T438 685Q525 685 590 652T692 555T729 400Q729 357 720 307Q703 217 651 145T520 32T345 -9Q258 -9 192 27ZM447
44T508 117T591 310Q599 358 599 396Q599 466 577 519T515 602T422 632Q341 632 280 561T196 375Q186 326 186 276Q186 172 231 108T360 44Q447 44 508 117ZM310 734T304 748T297 775Q366 811 457 882Q462 883 472 883Q493 883 508 876Q546 832 624 756Q612 737
579 732Q518 772 457 794Q411 776 343 739L321 727Q310 734 304 748Z" />
<glyph unicode="&#xd5;" glyph-name="Otilde" horiz-adv-x="741" d="M258 -9T192 27T90 128T54 281Q54 323 63 368Q81 460 134 532T267 644T438 685Q525 685 590 652T692 555T729 400Q729 357 720 307Q703 217 651 145T520 32T345 -9Q258 -9 192 27ZM447 44T508
117T591 310Q599 358 599 396Q599 466 577 519T515 602T422 632Q341 632 280 561T196 375Q186 326 186 276Q186 172 231 108T360 44Q447 44 508 117ZM486 744T471 749T435 765Q417 774 405 778T377 783Q341 783 296 747Q282 764 282 787Q282 796 283 800Q342 858
412 858Q433 858 449 853T487 837Q505 829 515 825T539 821Q569 821 604 854Q630 842 638 823Q578 744 506 744Q486 744 471 749Z" />
<glyph unicode="&#xd6;" glyph-name="Odieresis" horiz-adv-x="741" d="M258 -9T192 27T90 128T54 281Q54 323 63 368Q81 460 134 532T267 644T438 685Q525 685 590 652T692 555T729 400Q729 357 720 307Q703 217 651 145T520 32T345 -9Q258 -9 192 27ZM447 44T508
117T591 310Q599 358 599 396Q599 466 577 519T515 602T422 632Q341 632 280 561T196 375Q186 326 186 276Q186 172 231 108T360 44Q447 44 508 117ZM322 728T307 743T292 786Q292 797 293 802Q296 827 312 840T356 854Q382 854 398 840T415 801Q415 795 413 783Q407
756 391 742T349 728Q322 728 307 743ZM530 729T514 744T497 787Q497 819 515 836T565 854Q592 854 607 839T622 798Q622 765 605 747T556 729Q530 729 514 744Z" />
<glyph unicode="&#xd7;" glyph-name="multiply" horiz-adv-x="550" d="M447 378T318 258L482 49Q471 36 454 29T419 21L404 41Q355 107 272 215Q121 72 69 21Q49 21 33 27T9 46L237 260Q183 329 77 463Q90 475 106 482T137 490L283 303L491 497Q510 494 525 486T546
467Q447 378 318 258Z" />
<glyph unicode="&#xd8;" glyph-name="Oslash" horiz-adv-x="741" d="M665 594Q729 519 729 401Q729 357 720 307Q703 217 651 145T520 32T345 -9Q233 -9 159 48Q160 49 134 20L109 -9Q90 -9 75 -1T54 21L117 88Q86 125 70 174T54 281Q54 323 63 368Q81 460 134
532T267 644T438 685Q549 685 623 632L672 685Q691 685 706 679T730 660L665 594ZM186 325T186 276Q186 219 199 177L556 560Q532 595 498 613T422 632Q367 632 321 599T242 507T196 375Q186 325 186 276ZM599 358T599 395Q599 458 582 507Q393 309 224 120Q271
44 360 44Q447 44 508 117T591 310Q599 358 599 395Z" />
<glyph unicode="&#xd9;" glyph-name="Ugrave" horiz-adv-x="647" d="M202 -9T149 40T95 183Q95 221 102 257L151 539Q156 567 156 581Q156 604 146 613T108 626Q105 638 105 653Q105 661 107 679Q154 676 233 676Q316 676 368 679Q366 647 358 626Q326 623 311
615T288 588T272 527L226 262Q219 223 219 188Q219 52 339 52Q409 52 454 104T516 252L560 504Q567 540 567 565Q567 592 555 604T511 626Q508 641 508 656Q508 663 510 679Q552 676 611 676Q669 676 713 679Q711 649 702 626Q672 618 658 607T635 572T617 493L576
261Q551 120 488 56T311 -9Q202 -9 149 40ZM483 736T468 736Q453 736 440 741Q421 768 396 795T327 864Q360 874 394 874Q415 874 440 869Q460 797 491 740Q483 736 468 736Z" />
<glyph unicode="&#xda;" glyph-name="Uacute" horiz-adv-x="647" d="M202 -9T149 40T95 183Q95 221 102 257L151 539Q156 567 156 581Q156 604 146 613T108 626Q105 638 105 653Q105 661 107 679Q154 676 233 676Q316 676 368 679Q366 647 358 626Q326 623 311
615T288 588T272 527L226 262Q219 223 219 188Q219 52 339 52Q409 52 454 104T516 252L560 504Q567 540 567 565Q567 592 555 604T511 626Q508 641 508 656Q508 663 510 679Q552 676 611 676Q669 676 713 679Q711 649 702 626Q672 618 658 607T635 572T617 493L576
261Q551 120 488 56T311 -9Q202 -9 149 40ZM407 733T385 751Q412 782 434 817T467 878Q488 881 509 881Q559 881 589 866Q498 789 439 730Q407 733 385 751Z" />
<glyph unicode="&#xdb;" glyph-name="Ucircumflex" horiz-adv-x="647" d="M202 -9T149 40T95 183Q95 221 102 257L151 539Q156 567 156 581Q156 604 146 613T108 626Q105 638 105 653Q105 661 107 679Q154 676 233 676Q316 676 368 679Q366 647 358 626Q326 623
311 615T288 588T272 527L226 262Q219 223 219 188Q219 52 339 52Q409 52 454 104T516 252L560 504Q567 540 567 565Q567 592 555 604T511 626Q508 641 508 656Q508 663 510 679Q552 676 611 676Q669 676 713 679Q711 649 702 626Q672 618 658 607T635 572T617
493L576 261Q551 120 488 56T311 -9Q202 -9 149 40ZM310 734T304 748T297 775Q366 811 457 882Q462 883 472 883Q493 883 508 876Q546 832 624 756Q612 737 579 732Q518 772 457 794Q411 776 343 739L321 727Q310 734 304 748Z" />
<glyph unicode="&#xdc;" glyph-name="Udieresis" horiz-adv-x="647" d="M202 -9T149 40T95 183Q95 221 102 257L151 539Q156 567 156 581Q156 604 146 613T108 626Q105 638 105 653Q105 661 107 679Q154 676 233 676Q316 676 368 679Q366 647 358 626Q326 623
311 615T288 588T272 527L226 262Q219 223 219 188Q219 52 339 52Q409 52 454 104T516 252L560 504Q567 540 567 565Q567 592 555 604T511 626Q508 641 508 656Q508 663 510 679Q552 676 611 676Q669 676 713 679Q711 649 702 626Q672 618 658 607T635 572T617
493L576 261Q551 120 488 56T311 -9Q202 -9 149 40ZM322 728T307 743T292 786Q292 797 293 802Q296 827 312 840T356 854Q382 854 398 840T415 801Q415 795 413 783Q407 756 391 742T349 728Q322 728 307 743ZM530 729T514 744T497 787Q497 819 515 836T565 854Q592
854 607 839T622 798Q622 765 605 747T556 729Q530 729 514 744Z" />
<glyph unicode="&#xdd;" glyph-name="Yacute" horiz-adv-x="588" d="M626 676T661 679Q659 648 650 626Q629 618 612 602T563 535Q467 381 385 266L363 140Q358 113 358 101Q358 77 373 67T433 50Q437 35 437 15Q437 3 436 -3Q393 0 289 0Q174 0 133 -3Q133 28
143 50Q181 56 198 64T225 91T241 150L261 267Q223 394 170 532Q155 570 145 588T126 614T100 627Q98 635 98 654Q98 670 99 679Q140 676 223 676Q310 676 363 679Q363 651 353 626Q319 621 304 612T289 582Q289 565 297 546Q329 462 364 326Q428 421 489 530Q512
571 512 592Q512 605 501 613T467 626Q464 640 464 654Q464 661 466 679Q499 676 568 676Q626 676 661 679ZM375 733T353 751Q380 782 402 817T435 878Q456 881 477 881Q527 881 557 866Q466 789 407 730Q375 733 353 751Z" />
<glyph unicode="&#xde;" glyph-name="Thorn" horiz-adv-x="610" d="M506 541T553 498T601 386Q601 364 597 345Q587 293 553 249T464 177T337 150Q290 150 270 164Q270 192 282 211Q298 205 324 205Q379 205 420 238T475 344Q479 370 479 382Q479 434 448 463T352
492Q326 492 295 484L236 142Q232 112 232 105Q232 77 249 66T312 50Q315 35 315 17Q315 4 314 -3Q241 0 170 0Q84 0 24 -3Q26 28 35 50Q62 53 76 60T98 86T112 141L180 536Q184 557 184 576Q184 602 171 612T123 626Q121 646 121 658Q121 672 122 679Q184 676
256 676Q323 676 392 679Q390 649 381 626Q354 622 341 615T319 591T305 540Q339 541 405 541Q506 541 553 498Z" />
<glyph unicode="&#xdf;" glyph-name="germandbls" horiz-adv-x="597" d="M545 525T521 496T456 438Q427 417 414 403T400 366Q400 344 414 326T458 282Q498 246 519 215T541 140Q541 126 538 111Q517 -8 362 -8Q281 -8 227 30Q244 86 246 147Q275 159 310 156Q309
100 324 72T374 44Q398 44 413 56T433 92Q434 96 434 103Q434 127 418 148T371 198Q331 236 311 265T290 334Q290 348 293 361Q299 390 317 407T370 447Q409 471 430 492T459 551Q462 563 462 576Q462 614 438 637T368 661Q338 661 318 641T281 574T249 447Q219
283 197 139Q170 -33 104 -140T-54 -248Q-104 -248 -147 -208Q-148 -191 -145 -171T-135 -136Q-80 -154 -25 -154Q2 -154 18 -139T46 -80T70 52L75 91Q98 277 115 390Q73 398 41 398Q41 432 53 448H124L125 453Q147 577 209 645T399 714Q481 714 519 682T558 601Q558
587 555 573Q545 525 521 496Z" />
<glyph unicode="&#xe0;" glyph-name="agrave" horiz-adv-x="515" d="M479 83T486 57Q425 -9 359 -9Q321 -9 304 14T286 72Q286 95 293 119Q298 139 322 194H318Q286 106 231 49T115 -9Q66 -9 42 25T17 122Q17 157 27 210Q42 284 80 342T176 434T305 467Q343 467
378 456Q419 458 450 467Q458 462 462 455T467 432Q467 414 458 373L410 157Q399 105 399 91Q399 80 402 76T415 72Q425 72 436 78T464 98Q479 83 486 57ZM201 86T229 115T285 201T331 336L346 400Q320 410 286 410Q232 410 201 368T154 252Q142 197 142 159Q142
123 152 105T181 86Q201 86 229 115ZM318 611T346 538Q332 534 321 534Q307 534 294 539Q254 619 189 702Q221 712 254 712Q280 712 302 706Q318 611 346 538Z" />
<glyph unicode="&#xe1;" glyph-name="aacute" horiz-adv-x="515" d="M479 83T486 57Q425 -9 359 -9Q321 -9 304 14T286 72Q286 95 293 119Q298 139 322 194H318Q286 106 231 49T115 -9Q66 -9 42 25T17 122Q17 157 27 210Q42 284 80 342T176 434T305 467Q343 467
378 456Q419 458 450 467Q458 462 462 455T467 432Q467 414 458 373L410 157Q399 105 399 91Q399 80 402 76T415 72Q425 72 436 78T464 98Q479 83 486 57ZM201 86T229 115T285 201T331 336L346 400Q320 410 286 410Q232 410 201 368T154 252Q142 197 142 159Q142
123 152 105T181 86Q201 86 229 115ZM381 722T410 722Q455 722 481 706Q390 619 322 525Q292 528 270 545Q300 593 324 639T360 717Q381 722 410 722Z" />
<glyph unicode="&#xe2;" glyph-name="acircumflex" horiz-adv-x="515" d="M479 83T486 57Q425 -9 359 -9Q321 -9 304 14T286 72Q286 95 293 119Q298 139 322 194H318Q286 106 231 49T115 -9Q66 -9 42 25T17 122Q17 157 27 210Q42 284 80 342T176 434T305 467Q343
467 378 456Q419 458 450 467Q458 462 462 455T467 432Q467 414 458 373L410 157Q399 105 399 91Q399 80 402 76T415 72Q425 72 436 78T464 98Q479 83 486 57ZM201 86T229 115T285 201T331 336L346 400Q320 410 286 410Q232 410 201 368T154 252Q142 197 142 159Q142
123 152 105T181 86Q201 86 229 115ZM182 534T176 548T170 577Q261 637 336 709L349 710Q368 710 387 702Q430 635 497 559Q490 548 478 540T450 529Q398 573 332 609Q252 568 193 525Q182 534 176 548Z" />
<glyph unicode="&#xe3;" glyph-name="atilde" horiz-adv-x="515" d="M479 83T486 57Q425 -9 359 -9Q321 -9 304 14T286 72Q286 95 293 119Q298 139 322 194H318Q286 106 231 49T115 -9Q66 -9 42 25T17 122Q17 157 27 210Q42 284 80 342T176 434T305 467Q343 467
378 456Q419 458 450 467Q458 462 462 455T467 432Q467 414 458 373L410 157Q399 105 399 91Q399 80 402 76T415 72Q425 72 436 78T464 98Q479 83 486 57ZM201 86T229 115T285 201T331 336L346 400Q320 410 286 410Q232 410 201 368T154 252Q142 197 142 159Q142
123 152 105T181 86Q201 86 229 115ZM375 549T360 555T324 573Q304 584 292 589T264 595Q240 595 218 585T171 553Q154 571 157 595Q227 675 288 675Q308 675 324 669T361 650Q379 640 390 636T414 631Q451 631 490 670Q509 662 519 642Q484 592 454 571T393 549Q375
549 360 555Z" />
<glyph unicode="&#xe4;" glyph-name="adieresis" horiz-adv-x="515" d="M479 83T486 57Q425 -9 359 -9Q321 -9 304 14T286 72Q286 95 293 119Q298 139 322 194H318Q286 106 231 49T115 -9Q66 -9 42 25T17 122Q17 157 27 210Q42 284 80 342T176 434T305 467Q343
467 378 456Q419 458 450 467Q458 462 462 455T467 432Q467 414 458 373L410 157Q399 105 399 91Q399 80 402 76T415 72Q425 72 436 78T464 98Q479 83 486 57ZM201 86T229 115T285 201T331 336L346 400Q320 410 286 410Q232 410 201 368T154 252Q142 197 142 159Q142
123 152 105T181 86Q201 86 229 115ZM212 522T197 537T182 578Q182 588 185 598Q196 651 248 651Q275 651 290 637T306 598Q306 586 304 579Q298 553 281 538T238 522Q212 522 197 537ZM386 523T371 537T356 577Q356 582 358 594Q369 651 425 651Q451 651 466 639T482
600Q482 596 480 582Q475 554 458 539T414 523Q386 523 371 537Z" />
<glyph unicode="&#xe5;" glyph-name="aring" horiz-adv-x="515" d="M479 83T486 57Q425 -9 359 -9Q321 -9 304 14T286 72Q286 95 293 119Q298 139 322 194H318Q286 106 231 49T115 -9Q66 -9 42 25T17 122Q17 157 27 210Q42 284 80 342T176 434T305 467Q343 467
378 456Q419 458 450 467Q458 462 462 455T467 432Q467 414 458 373L410 157Q399 105 399 91Q399 80 402 76T415 72Q425 72 436 78T464 98Q479 83 486 57ZM201 86T229 115T285 201T331 336L346 400Q320 410 286 410Q232 410 201 368T154 252Q142 197 142 159Q142
123 152 105T181 86Q201 86 229 115ZM279 523T253 545T227 605Q227 654 260 684T349 714Q400 714 424 690T449 629Q449 581 417 552T328 523Q279 523 253 545ZM369 567T379 610Q381 622 381 627Q381 647 371 660T344 674Q322 674 308 655T294 609Q294 590 304 579T333
567Q369 567 379 610Z" />
<glyph unicode="&#xe6;" glyph-name="ae" horiz-adv-x="641" d="M630 305T566 234T399 107Q418 75 454 75Q479 75 507 87T556 122Q573 105 576 78Q540 39 493 15T398 -9Q320 -9 287 46Q207 -9 137 -9Q77 -9 48 28T18 131Q18 168 27 210Q54 331 128 399T303 467Q363
467 413 440Q461 467 517 467Q572 467 601 441T630 371Q630 305 566 234ZM232 84T268 102Q265 120 265 140Q265 177 275 225Q298 332 358 396Q327 410 296 410Q236 410 203 371T151 252Q139 201 139 166Q139 84 203 84Q232 84 268 102ZM534 349T534 356Q534 382
523 395T492 408Q458 408 432 370T393 271Q383 219 383 185Q383 175 385 155Q516 229 532 333Q534 349 534 356Z" />
<glyph unicode="&#xe7;" glyph-name="ccedilla" horiz-adv-x="394" d="M352 325T330 325Q322 325 308 327Q311 371 300 391T261 411Q218 411 192 369T153 256Q145 214 145 177Q145 71 221 71Q250 71 278 84T330 121Q345 106 350 78Q290 13 217 -3L174 -53Q237
-67 237 -128Q237 -140 234 -155Q225 -199 183 -221T74 -242Q71 -235 71 -224Q71 -217 73 -205Q115 -205 139 -190T163 -147Q163 -127 148 -116T109 -104Q98 -91 98 -75Q98 -67 99 -63L147 -8Q82 -3 52 40T22 151Q22 188 32 236Q55 338 116 402T283 467Q314 467
342 460T389 440Q370 385 367 331Q352 325 330 325Z" />
<glyph unicode="&#xe8;" glyph-name="egrave" horiz-adv-x="408" d="M333 467T363 440T394 373Q394 329 358 290T264 225T146 194Q139 73 219 73Q277 73 323 122Q340 105 343 78Q264 -9 158 -9Q86 -9 54 34T22 148Q22 183 30 225Q46 303 82 357T169 439T276 467Q333
467 363 440ZM300 383T289 396T256 410Q223 410 195 369T153 249L152 244Q217 249 258 280T300 360Q300 383 289 396ZM274 611T302 538Q288 534 277 534Q263 534 250 539Q210 619 145 702Q177 712 210 712Q236 712 258 706Q274 611 302 538Z" />
<glyph unicode="&#xe9;" glyph-name="eacute" horiz-adv-x="408" d="M333 467T363 440T394 373Q394 329 358 290T264 225T146 194Q139 73 219 73Q277 73 323 122Q340 105 343 78Q264 -9 158 -9Q86 -9 54 34T22 148Q22 183 30 225Q46 303 82 357T169 439T276 467Q333
467 363 440ZM300 383T289 396T256 410Q223 410 195 369T153 249L152 244Q217 249 258 280T300 360Q300 383 289 396ZM337 722T366 722Q411 722 437 706Q346 619 278 525Q248 528 226 545Q256 593 280 639T316 717Q337 722 366 722Z" />
<glyph unicode="&#xea;" glyph-name="ecircumflex" horiz-adv-x="408" d="M333 467T363 440T394 373Q394 329 358 290T264 225T146 194Q139 73 219 73Q277 73 323 122Q340 105 343 78Q264 -9 158 -9Q86 -9 54 34T22 148Q22 183 30 225Q46 303 82 357T169 439T276
467Q333 467 363 440ZM300 383T289 396T256 410Q223 410 195 369T153 249L152 244Q217 249 258 280T300 360Q300 383 289 396ZM138 534T132 548T126 577Q217 637 292 709L305 710Q324 710 343 702Q386 635 453 559Q446 548 434 540T406 529Q354 573 288 609Q208
568 149 525Q138 534 132 548Z" />
<glyph unicode="&#xeb;" glyph-name="edieresis" horiz-adv-x="408" d="M333 467T363 440T394 373Q394 329 358 290T264 225T146 194Q139 73 219 73Q277 73 323 122Q340 105 343 78Q264 -9 158 -9Q86 -9 54 34T22 148Q22 183 30 225Q46 303 82 357T169 439T276
467Q333 467 363 440ZM300 383T289 396T256 410Q223 410 195 369T153 249L152 244Q217 249 258 280T300 360Q300 383 289 396ZM168 522T153 537T138 578Q138 588 141 598Q152 651 204 651Q231 651 246 637T262 598Q262 586 260 579Q254 553 237 538T194 522Q168
522 153 537ZM342 523T327 537T312 577Q312 582 314 594Q325 651 381 651Q407 651 422 639T438 600Q438 596 436 582Q431 554 414 539T370 523Q342 523 327 537Z" />
<glyph unicode="&#xec;" glyph-name="igrave" horiz-adv-x="275" d="M39 -9T39 73Q39 104 50 145L85 274Q100 331 100 347Q100 366 88 372T42 378Q40 407 50 426Q82 428 123 440T193 467Q232 450 232 404Q232 378 222 342L173 151Q161 106 161 90Q161 81 165 77T177
73Q198 73 224 98Q232 91 238 80T245 56Q183 -9 118 -9Q39 -9 39 73ZM183 611T211 538Q197 534 186 534Q172 534 159 539Q119 619 54 702Q86 712 119 712Q145 712 167 706Q183 611 211 538Z" />
<glyph unicode="&#xed;" glyph-name="iacute" horiz-adv-x="275" d="M39 -9T39 73Q39 104 50 145L85 274Q100 331 100 347Q100 366 88 372T42 378Q40 407 50 426Q82 428 123 440T193 467Q232 450 232 404Q232 378 222 342L173 151Q161 106 161 90Q161 81 165 77T177
73Q198 73 224 98Q232 91 238 80T245 56Q183 -9 118 -9Q39 -9 39 73ZM246 722T275 722Q320 722 346 706Q255 619 187 525Q157 528 135 545Q165 593 189 639T225 717Q246 722 275 722Z" />
<glyph unicode="&#xee;" glyph-name="icircumflex" horiz-adv-x="275" d="M66 535T62 567Q126 620 208 711Q243 713 257 707L305 612L342 538Q334 532 318 528T289 525Q239 588 206 616Q140 561 94 515Q66 535 62 567ZM39 -9T39 73Q39 104 50 145L85 274Q100 331
100 347Q100 366 88 372T42 378Q40 407 50 426Q82 428 123 440T193 467Q232 450 232 404Q232 378 222 342L173 151Q161 106 161 90Q161 81 165 77T177 73Q198 73 224 98Q232 91 238 80T245 56Q183 -9 118 -9Q39 -9 39 73Z" />
<glyph unicode="&#xef;" glyph-name="idieresis" horiz-adv-x="275" d="M76 525T60 540T43 580Q43 609 62 629T117 650Q148 650 163 635T178 595Q178 564 157 545T103 525Q76 525 60 540ZM249 526T233 541T217 581Q217 615 237 632T292 650Q318 650 335 635T352
595Q352 587 351 582Q346 558 329 542T280 526Q249 526 233 541ZM39 -9T39 73Q39 104 50 145L85 274Q100 331 100 347Q100 366 88 372T42 378Q40 407 50 426Q82 428 123 440T193 467Q232 450 232 404Q232 378 222 342L173 151Q161 106 161 90Q161 81 165 77T177
73Q198 73 224 98Q232 91 238 80T245 56Q183 -9 118 -9Q39 -9 39 73Z" />
<glyph unicode="&#xf0;" glyph-name="eth" horiz-adv-x="483" d="M501 655T501 638Q501 630 499 614Q460 596 429 584Q472 496 472 387Q472 327 459 265Q433 133 365 63T193 -8Q110 -8 67 35T23 159Q23 189 31 231Q53 341 117 403T271 465Q319 465 347 442Q341
495 322 536Q254 503 216 482Q209 499 209 525Q209 534 211 544L294 582Q260 628 195 660Q197 683 210 705Q217 704 231 704Q270 704 322 716Q370 679 402 632L496 675Q501 655 501 638ZM293 48T335 265Q346 319 349 378Q336 393 317 401T281 409Q235 409 203 362T154
225Q145 179 145 144Q145 97 160 73T205 48Q293 48 335 265Z" />
<glyph unicode="&#xf1;" glyph-name="ntilde" horiz-adv-x="560" d="M525 81T530 56Q465 -9 402 -9Q360 -9 343 10T325 66Q325 97 339 158L363 262Q373 303 373 330Q373 373 346 373Q321 373 288 340T224 247T179 108L159 0H40L93 283Q101 326 101 344Q101 366
89 372T42 378Q42 411 50 426Q83 428 132 440T211 467Q237 457 237 422Q237 416 235 402Q223 337 198 278V277L214 311Q232 348 264 384T334 443T409 467Q447 467 472 441T498 356Q498 318 487 273L461 162Q447 103 447 85Q447 77 449 75T459 72Q468 72 482 79T508
98Q525 81 530 56ZM385 549T370 555T334 573Q314 584 302 589T274 595Q250 595 228 585T181 553Q164 571 167 595Q237 675 298 675Q318 675 334 669T371 650Q389 640 400 636T424 631Q461 631 500 670Q519 662 529 642Q494 592 464 571T403 549Q385 549 370 555Z"
/>
<glyph unicode="&#xf2;" glyph-name="ograve" horiz-adv-x="498" d="M119 -9T73 40T26 172Q26 205 31 230Q51 338 122 402T293 467Q379 467 426 419T473 288Q473 267 468 235Q456 163 420 108T328 22T205 -9Q119 -9 73 40ZM259 46T292 94T341 227Q348 262 348
296Q348 349 330 380T279 412Q238 412 205 365T158 239Q151 201 151 164Q151 109 168 78T218 46Q259 46 292 94ZM303 611T331 538Q317 534 306 534Q292 534 279 539Q239 619 174 702Q206 712 239 712Q265 712 287 706Q303 611 331 538Z" />
<glyph unicode="&#xf3;" glyph-name="oacute" horiz-adv-x="498" d="M119 -9T73 40T26 172Q26 205 31 230Q51 338 122 402T293 467Q379 467 426 419T473 288Q473 267 468 235Q456 163 420 108T328 22T205 -9Q119 -9 73 40ZM259 46T292 94T341 227Q348 262 348
296Q348 349 330 380T279 412Q238 412 205 365T158 239Q151 201 151 164Q151 109 168 78T218 46Q259 46 292 94ZM366 722T395 722Q440 722 466 706Q375 619 307 525Q277 528 255 545Q285 593 309 639T345 717Q366 722 395 722Z" />
<glyph unicode="&#xf4;" glyph-name="ocircumflex" horiz-adv-x="498" d="M119 -9T73 40T26 172Q26 205 31 230Q51 338 122 402T293 467Q379 467 426 419T473 288Q473 267 468 235Q456 163 420 108T328 22T205 -9Q119 -9 73 40ZM259 46T292 94T341 227Q348 262
348 296Q348 349 330 380T279 412Q238 412 205 365T158 239Q151 201 151 164Q151 109 168 78T218 46Q259 46 292 94ZM167 534T161 548T155 577Q246 637 321 709L334 710Q353 710 372 702Q415 635 482 559Q475 548 463 540T435 529Q383 573 317 609Q237 568 178
525Q167 534 161 548Z" />
<glyph unicode="&#xf5;" glyph-name="otilde" horiz-adv-x="498" d="M119 -9T73 40T26 172Q26 205 31 230Q51 338 122 402T293 467Q379 467 426 419T473 288Q473 267 468 235Q456 163 420 108T328 22T205 -9Q119 -9 73 40ZM259 46T292 94T341 227Q348 262 348
296Q348 349 330 380T279 412Q238 412 205 365T158 239Q151 201 151 164Q151 109 168 78T218 46Q259 46 292 94ZM360 549T345 555T309 573Q289 584 277 589T249 595Q225 595 203 585T156 553Q139 571 142 595Q212 675 273 675Q293 675 309 669T346 650Q364 640
375 636T399 631Q436 631 475 670Q494 662 504 642Q469 592 439 571T378 549Q360 549 345 555Z" />
<glyph unicode="&#xf6;" glyph-name="odieresis" horiz-adv-x="498" d="M119 -9T73 40T26 172Q26 205 31 230Q51 338 122 402T293 467Q379 467 426 419T473 288Q473 267 468 235Q456 163 420 108T328 22T205 -9Q119 -9 73 40ZM259 46T292 94T341 227Q348 262 348
296Q348 349 330 380T279 412Q238 412 205 365T158 239Q151 201 151 164Q151 109 168 78T218 46Q259 46 292 94ZM197 522T182 537T167 578Q167 588 170 598Q181 651 233 651Q260 651 275 637T291 598Q291 586 289 579Q283 553 266 538T223 522Q197 522 182 537ZM371
523T356 537T341 577Q341 582 343 594Q354 651 410 651Q436 651 451 639T467 600Q467 596 465 582Q460 554 443 539T399 523Q371 523 356 537Z" />
<glyph unicode="&#xf7;" glyph-name="divide" horiz-adv-x="550" d="M276 366T261 381T245 424Q245 453 263 468T306 483Q331 483 348 468T365 427Q365 401 350 384T307 366Q276 366 261 381ZM43 246T46 264T53 293H507Q507 273 505 259T497 233Q391 235 285 235Q233
235 133 233L43 232Q43 246 46 264ZM221 44T204 60T186 101Q186 127 200 143T244 159Q304 159 304 101Q304 75 288 60T246 44Q221 44 204 60Z" />
<glyph unicode="&#xf8;" glyph-name="oslash" horiz-adv-x="498" d="M474 424T445 395Q473 350 473 289Q473 267 468 235Q456 163 420 108T328 22T205 -9Q139 -9 94 22Q87 14 80 7T67 -9L51 -27Q35 -27 20 -20T-3 -2L56 60Q25 107 25 171Q25 199 31 230Q51 338
122 402T293 467Q365 467 411 432L459 483Q476 484 490 478T514 462Q474 424 445 395ZM150 191T151 159L340 358Q332 384 316 398T279 412Q238 412 205 363T158 239Q150 191 151 159ZM348 261T348 295Q260 204 161 95Q178 46 218 46Q259 46 293 96T341 227Q348
261 348 295Z" />
<glyph unicode="&#xf9;" glyph-name="ugrave" horiz-adv-x="552" d="M57 -9T57 98Q57 151 74 219Q98 315 98 344Q98 366 87 371T42 378Q40 406 50 426Q82 428 131 441T208 467Q221 459 226 451T231 426Q231 406 223 364T194 237Q179 174 179 140Q179 88 211 88Q233
88 264 119T325 210T371 356L390 458H509L461 209Q442 111 442 90Q442 78 445 75T457 72Q474 72 501 98Q508 91 514 80T523 57Q496 28 463 10T398 -9Q317 -9 317 68Q317 78 321 104Q326 130 337 152H336Q305 89 249 40T135 -9Q57 -9 57 98ZM311 611T339 538Q325
534 314 534Q300 534 287 539Q247 619 182 702Q214 712 247 712Q273 712 295 706Q311 611 339 538Z" />
<glyph unicode="&#xfa;" glyph-name="uacute" horiz-adv-x="552" d="M57 -9T57 98Q57 151 74 219Q98 315 98 344Q98 366 87 371T42 378Q40 406 50 426Q82 428 131 441T208 467Q221 459 226 451T231 426Q231 406 223 364T194 237Q179 174 179 140Q179 88 211 88Q233
88 264 119T325 210T371 356L390 458H509L461 209Q442 111 442 90Q442 78 445 75T457 72Q474 72 501 98Q508 91 514 80T523 57Q496 28 463 10T398 -9Q317 -9 317 68Q317 78 321 104Q326 130 337 152H336Q305 89 249 40T135 -9Q57 -9 57 98ZM374 722T403 722Q448
722 474 706Q383 619 315 525Q285 528 263 545Q293 593 317 639T353 717Q374 722 403 722Z" />
<glyph unicode="&#xfb;" glyph-name="ucircumflex" horiz-adv-x="552" d="M57 -9T57 98Q57 151 74 219Q98 315 98 344Q98 366 87 371T42 378Q40 406 50 426Q82 428 131 441T208 467Q221 459 226 451T231 426Q231 406 223 364T194 237Q179 174 179 140Q179 88 211
88Q233 88 264 119T325 210T371 356L390 458H509L461 209Q442 111 442 90Q442 78 445 75T457 72Q474 72 501 98Q508 91 514 80T523 57Q496 28 463 10T398 -9Q317 -9 317 68Q317 78 321 104Q326 130 337 152H336Q305 89 249 40T135 -9Q57 -9 57 98ZM175 534T169
548T163 577Q254 637 329 709L342 710Q361 710 380 702Q423 635 490 559Q483 548 471 540T443 529Q391 573 325 609Q245 568 186 525Q175 534 169 548Z" />
<glyph unicode="&#xfc;" glyph-name="udieresis" horiz-adv-x="552" d="M57 -9T57 98Q57 151 74 219Q98 315 98 344Q98 366 87 371T42 378Q40 406 50 426Q82 428 131 441T208 467Q221 459 226 451T231 426Q231 406 223 364T194 237Q179 174 179 140Q179 88 211
88Q233 88 264 119T325 210T371 356L390 458H509L461 209Q442 111 442 90Q442 78 445 75T457 72Q474 72 501 98Q508 91 514 80T523 57Q496 28 463 10T398 -9Q317 -9 317 68Q317 78 321 104Q326 130 337 152H336Q305 89 249 40T135 -9Q57 -9 57 98ZM205 522T190
537T175 578Q175 588 178 598Q189 651 241 651Q268 651 283 637T299 598Q299 586 297 579Q291 553 274 538T231 522Q205 522 190 537ZM379 523T364 537T349 577Q349 582 351 594Q362 651 418 651Q444 651 459 639T475 600Q475 596 473 582Q468 554 451 539T407
523Q379 523 364 537Z" />
<glyph unicode="&#xfd;" glyph-name="yacute" horiz-adv-x="484" d="M467 448T467 385Q467 324 425 245T276 24Q187 -95 137 -152T52 -228T-23 -248Q-79 -248 -120 -208Q-122 -168 -108 -136Q-62 -154 -6 -154Q33 -154 66 -135T148 -57Q139 67 126 154T91 317Q84
343 77 355T56 373T16 377Q14 406 23 426Q51 429 89 441T147 467Q170 460 179 445T198 383Q235 211 242 70Q353 229 353 319Q353 372 290 377Q287 391 287 405Q287 411 289 425Q318 431 356 444T413 468Q467 448 467 385ZM329 722T358 722Q403 722 429 706Q338
619 270 525Q240 528 218 545Q248 593 272 639T308 717Q329 722 358 722Z" />
<glyph unicode="&#xfe;" glyph-name="thorn" horiz-adv-x="495" d="M429 468T453 434T478 337Q478 302 468 249Q453 175 415 117T319 25T190 -8Q163 -8 139 -2Q140 -41 133 -78L103 -244H-16L119 526Q127 569 127 587Q127 609 115 615T68 621Q68 653 76 669Q110
671 158 683T237 710Q250 703 256 693T262 666Q262 654 259 639L222 440Q202 333 175 265H177Q209 353 264 410T380 468Q429 468 453 434ZM353 263T353 300Q353 336 343 354T314 373Q294 373 266 344T210 258T164 123L149 59Q175 49 209 49Q263 49 294 91T341 207Q353
263 353 300Z" />
<glyph unicode="&#xff;" glyph-name="ydieresis" horiz-adv-x="484" d="M467 448T467 385Q467 324 425 245T276 24Q187 -95 137 -152T52 -228T-23 -248Q-79 -248 -120 -208Q-122 -168 -108 -136Q-62 -154 -6 -154Q33 -154 66 -135T148 -57Q139 67 126 154T91 317Q84
343 77 355T56 373T16 377Q14 406 23 426Q51 429 89 441T147 467Q170 460 179 445T198 383Q235 211 242 70Q353 229 353 319Q353 372 290 377Q287 391 287 405Q287 411 289 425Q318 431 356 444T413 468Q467 448 467 385ZM160 522T145 537T130 578Q130 588 133
598Q144 651 196 651Q223 651 238 637T254 598Q254 586 252 579Q246 553 229 538T186 522Q160 522 145 537ZM334 523T319 537T304 577Q304 582 306 594Q317 651 373 651Q399 651 414 639T430 600Q430 596 428 582Q423 554 406 539T362 523Q334 523 319 537Z" />
<glyph unicode="&#x2013;" glyph-name="endash" horiz-adv-x="539" d="M504 263T487 237Q198 237 49 234Q49 275 66 299H506Q504 263 487 237Z" />
<glyph unicode="&#x2014;" glyph-name="emdash" horiz-adv-x="1001" d="M966 261T948 236Q768 236 545 236T47 233Q50 274 68 298H969Q966 261 948 236Z" />
<glyph unicode="&#x2018;" glyph-name="quoteleft" horiz-adv-x="259" d="M113 455T113 499Q113 517 118 542Q137 641 230 718Q261 715 272 692Q212 634 212 593Q212 557 261 547Q261 527 256 506T241 471Q216 470 188 461T141 440Q113 455 113 499Z" />
<glyph unicode="&#x2019;" glyph-name="quoteright" horiz-adv-x="260" d="M283 702T283 658Q283 640 278 615Q259 516 166 439Q135 442 124 465Q184 523 184 564Q184 600 135 610Q135 630 140 651T155 686Q180 687 208 696T255 717Q283 702 283 658Z" />
<glyph unicode="&#x201a;" glyph-name="quotesinglbase" horiz-adv-x="222" d="M149 111T149 67Q149 49 144 24Q125 -75 32 -152Q1 -149 -10 -126Q50 -68 50 -27Q50 9 1 19Q1 39 6 60T21 95Q46 96 74 105T121 126Q149 111 149 67Z" />
<glyph unicode="&#x201c;" glyph-name="quotedblleft" horiz-adv-x="425" d="M112 452T112 496Q112 514 117 539Q136 640 229 715Q258 712 271 689Q212 632 212 592Q212 559 256 544Q256 524 251 503T236 468Q211 467 185 458T140 437Q112 452 112 496ZM282 451T282
495Q282 514 289 544Q309 643 390 710Q418 709 432 684Q376 629 376 591Q376 555 426 544Q426 524 421 503T406 468Q381 467 355 458T310 437Q282 451 282 495Z" />
<glyph unicode="&#x201d;" glyph-name="quotedblright" horiz-adv-x="426" d="M279 703T279 659Q279 640 272 610Q252 511 171 444Q143 445 129 470Q185 525 185 563Q185 599 135 610Q135 630 140 651T155 686Q180 687 206 696T251 717Q279 703 279 659ZM449 702T449
658Q449 640 444 615Q425 514 332 439Q303 442 290 465Q349 522 349 562Q349 595 305 610Q305 630 310 651T325 686Q350 687 376 696T421 717Q449 702 449 658Z" />
<glyph unicode="&#x201e;" glyph-name="quotedblbase" horiz-adv-x="389" d="M145 112T145 68Q145 49 138 19Q118 -80 37 -147Q9 -146 -5 -121Q51 -66 51 -28Q51 8 1 19Q1 39 6 60T21 95Q46 96 72 105T117 126Q145 112 145 68ZM315 111T315 67Q315 49 310 24Q291
-77 198 -152Q169 -149 156 -126Q215 -69 215 -29Q215 4 171 19Q171 39 176 60T191 95Q216 96 242 105T287 126Q315 111 315 67Z" />
<glyph unicode="&#x2022;" glyph-name="bullet" horiz-adv-x="337" d="M119 161T88 193T57 273Q57 288 60 303Q68 345 103 371T189 398Q240 398 271 367T302 289Q302 278 299 264Q289 216 256 189T174 161Q119 161 88 193Z" />
<glyph unicode="&#x2039;" glyph-name="guilsinglleft" horiz-adv-x="278" d="M160 361T65 283Q49 263 47 230Q111 163 175 76Q198 90 210 116Q194 145 174 188T146 259Q164 285 198 325T261 395Q255 404 243 410T216 417Q160 361 65 283Z" />
<glyph unicode="&#x203a;" glyph-name="guilsinglright" horiz-adv-x="284" d="M173 353T238 285Q243 275 243 258Q243 243 239 232Q147 158 62 80Q40 96 37 124Q113 196 152 244Q140 276 120 321T80 402Q99 417 127 415Q173 353 238 285Z" />
</font>
</defs>
</svg>
